<?xml version="1.0" standalone="no"?>
<!DOCTYPE svg PUBLIC "-//W3C//DTD SVG 1.1//EN" "http://www.w3.org/Graphics/SVG/1.1/DTD/svg11.dtd" >
<svg xmlns="http://www.w3.org/2000/svg" xmlns:xlink="http://www.w3.org/1999/xlink" version="1.1">
<metadata>
Created by FontForge 20201107 at Tue Feb 18 12:50:49 2025
 By 
Copyright (c) Mark Simonson, 2005. All rights reserved.
</metadata>
<defs>
<font id="ProximaNovaCond-BlackIt" horiz-adv-x="1026" >
  <font-face 
    font-family="Proxima Nova Cn Bl"
    font-weight="900"
    font-style="italic"
    font-stretch="normal"
    units-per-em="2048"
    panose-1="2 0 5 6 3 0 0 2 0 4"
    ascent="1638"
    descent="-410"
    x-height="989"
    cap-height="1366"
    bbox="-387 -604 2202 1833"
    underline-thickness="40"
    underline-position="-271"
    unicode-range="U+000D-FB04"
  />
<missing-glyph horiz-adv-x="915" 
d="M858 -184h-719v1724h719v-1724zM793 -123v1602h-590v-1602h590z" />
    <glyph glyph-name="f_f_j" unicode="ffj" horiz-adv-x="1843" 
d="M1040 0h-346l152 690h-125l67 299h123l11 45q39 168 137 260t250 92q135 0 221 -45l-111 -243q-19 16 -57 16q-39 0 -63.5 -22t-30.5 -58l-11 -45h160l-67 -299h-158zM1229 -401q-167 0 -242 63l123 252q25 -29 80 -29q83 0 110 123l220 981h346l-219 -981
q-21 -97 -51.5 -168.5t-79 -127.5t-120.5 -84.5t-167 -28.5zM1729 1069q-75 0 -126 49t-51 117q0 101 70 163t152 62q75 0 125.5 -48.5t50.5 -117.5q0 -101 -69.5 -163t-151.5 -62zM379 0h-346l151 690h-125l68 299h123l10 47q79 350 391 350q81 0 155.5 -21.5t115.5 -61.5
l-146 -222q-30 33 -78 33q-76 0 -94 -84l-8 -41h160l-68 -299h-158z" />
    <glyph glyph-name="f_j" unicode="fj" horiz-adv-x="1181" 
d="M379 0h-346l151 690h-125l68 299h123l10 45q39 168 137 260t250 92q135 0 221 -45l-110 -243q-19 16 -58 16t-63.5 -22t-30.5 -58l-10 -45h160l-68 -299h-158zM567 -401q-166 0 -241 63l123 252q25 -29 79 -29q84 0 111 123l219 981h346l-219 -981q-21 -97 -51.5 -168.5
t-79 -127.5t-120.5 -84.5t-167 -28.5zM1067 1069q-75 0 -125.5 48.5t-50.5 117.5q0 101 69.5 163t151.5 62q75 0 125.5 -48.5t50.5 -117.5q0 -101 -69.5 -163t-151.5 -62z" />
    <glyph glyph-name="f_f" unicode="ff" horiz-adv-x="1323" 
d="M379 0h-346l151 690h-125l68 299h123l10 47q79 350 391 350q81 0 155.5 -21.5t115.5 -61.5l-146 -222q-30 33 -78 33q-76 0 -94 -84l-8 -41h160l-68 -299h-158zM1040 0h-346l152 690h-125l67 299h123l11 47q79 350 391 350q81 0 155 -21.5t115 -61.5l-145 -222
q-30 33 -78 33q-76 0 -94 -84l-9 -41h160l-67 -299h-158z" />
    <glyph glyph-name="fi" unicode="fi" horiz-adv-x="1181" 
d="M379 0h-346l151 690h-125l68 299h123l10 45q39 168 137 260t250 92q135 0 221 -45l-110 -243q-19 16 -58 16t-63.5 -22t-30.5 -58l-10 -45h160l-68 -299h-158zM1067 1069q-75 0 -125.5 48.5t-50.5 117.5q0 101 69.5 163t151.5 62q75 0 125.5 -48.5t50.5 -117.5
q0 -101 -69.5 -163t-151.5 -62zM985 0h-348l221 989h346z" />
    <glyph glyph-name="fl" unicode="fl" horiz-adv-x="1181" 
d="M379 0h-346l151 690h-125l68 299h123l10 45q39 168 137 260t250 92q135 0 221 -45l-110 -243q-19 16 -58 16t-63.5 -22t-30.5 -58l-10 -45h160l-68 -299h-158zM985 0h-348l303 1366h346z" />
    <glyph glyph-name="f_f_i" unicode="ffi" horiz-adv-x="1843" 
d="M1040 0h-346l152 690h-125l67 299h123l11 45q39 168 137 260t250 92q135 0 221 -45l-111 -243q-19 16 -57 16q-39 0 -63.5 -22t-30.5 -58l-11 -45h160l-67 -299h-158zM1729 1069q-75 0 -126 49t-51 117q0 101 70 163t152 62q75 0 125.5 -48.5t50.5 -117.5
q0 -101 -69.5 -163t-151.5 -62zM1647 0h-349l222 989h346zM379 0h-346l151 690h-125l68 299h123l10 47q79 350 391 350q81 0 155.5 -21.5t115.5 -61.5l-146 -222q-30 33 -78 33q-76 0 -94 -84l-8 -41h160l-68 -299h-158z" />
    <glyph glyph-name="f_f_l" unicode="ffl" horiz-adv-x="1843" 
d="M1040 0h-346l152 690h-125l67 299h123l11 45q39 168 137 260t250 92q135 0 221 -45l-111 -243q-19 16 -57 16q-39 0 -63.5 -22t-30.5 -58l-11 -45h160l-67 -299h-158zM1647 0h-349l304 1366h346zM379 0h-346l151 690h-125l68 299h123l10 47q79 350 391 350
q81 0 155.5 -21.5t115.5 -61.5l-146 -222q-30 33 -78 33q-76 0 -94 -84l-8 -41h160l-68 -299h-158z" />
    <glyph glyph-name="f_b" unicode="fb" horiz-adv-x="1744" 
d="M379 0h-346l151 690h-125l68 299h123l10 45q39 168 137 260t250 92q135 0 221 -45l-110 -243q-19 16 -58 16t-63.5 -22t-30.5 -58l-10 -45h160l-68 -299h-158zM1257 -25q-181 0 -249 134l-23 -109h-346l301 1366h346l-108 -483q106 131 241 131q143 0 223 -96t80 -279
q0 -84 -17.5 -173.5t-56 -177.5t-91.5 -157.5t-131 -112.5t-169 -43zM1182 281q55 0 99 50t64.5 116t20.5 128q0 61 -34 97.5t-89 36.5q-66 0 -117 -68l-65 -291q38 -69 121 -69z" />
    <glyph glyph-name="f_h" unicode="fh" horiz-adv-x="1757" 
d="M379 0h-346l151 690h-125l68 299h123l10 45q39 168 137 260t250 92q135 0 221 -45l-110 -243q-19 16 -58 16t-63.5 -22t-30.5 -58l-10 -45h160l-68 -299h-158zM1561 0h-347l129 590q7 35 7 47q0 35 -25 53.5t-65 18.5q-69 0 -138 -86l-137 -623h-346l301 1366h346
l-110 -492q130 140 286 140q123 0 193.5 -61.5t70.5 -159.5q0 -30 -8 -66z" />
    <glyph glyph-name="f_k" unicode="fk" horiz-adv-x="1687" 
d="M379 0h-346l151 690h-125l68 299h123l10 45q39 168 137 260t250 92q135 0 221 -45l-110 -243q-19 16 -58 16t-63.5 -22t-30.5 -58l-10 -45h160l-68 -299h-158zM1595 0h-397l-68 336l-98 -119l-47 -217h-348l303 1366h346l-160 -717l258 340h410l-379 -442z" />
    <glyph glyph-name=".notdef" horiz-adv-x="915" 
d="M858 -184h-719v1724h719v-1724zM793 -123v1602h-590v-1602h590z" />
    <glyph glyph-name=".null" horiz-adv-x="0" 
 />
    <glyph glyph-name=".null" horiz-adv-x="0" 
 />
    <glyph glyph-name="nonmarkingreturn" horiz-adv-x="682" 
 />
    <glyph glyph-name="CR" unicode="&#xd;" horiz-adv-x="0" 
 />
    <glyph glyph-name="space" unicode=" " horiz-adv-x="419" 
 />
    <glyph glyph-name="exclam" unicode="!" horiz-adv-x="567" 
d="M436 496h-309l139 870h414zM193 -27q-78 0 -133.5 57.5t-55.5 135.5q0 92 67.5 158.5t159.5 66.5q78 0 133.5 -56.5t55.5 -135.5q0 -91 -67.5 -158.5t-159.5 -67.5z" />
    <glyph glyph-name="quotedbl" unicode="&#x22;" horiz-adv-x="933" 
d="M371 711h-144q-2 426 -2 471q1 87 61.5 145.5t145.5 58.5q64 0 110 -45.5t46 -113.5q0 -34 -17 -74zM801 711h-144v471q0 87 59.5 145.5t145.5 58.5q64 0 111 -45.5t47 -113.5q0 -30 -19 -74q-7 -19 -57 -129.5t-96 -211.5z" />
    <glyph glyph-name="numbersign" unicode="#" horiz-adv-x="1161" 
d="M588 0h-246l168 330h-137l-164 -330h-248l168 330h-141l106 211h144l139 284h-141l102 209h147l166 332h246l-166 -332h135l164 332h246l-166 -332h141l-100 -209h-147l-144 -284h150l-105 -211h-153zM616 541l142 284h-135l-142 -284h135z" />
    <glyph glyph-name="dollar" unicode="$" horiz-adv-x="1095" 
d="M281 -205l45 203q-115 25 -207.5 76t-149.5 121l224 280q54 -72 150.5 -118t195.5 -46q50 0 78 24t28 58q0 24 -27 47.5t-70.5 45.5t-96.5 47t-105.5 59t-96 75t-70.5 101t-27 131q0 121 56.5 226.5t168.5 177.5t258 83l41 187h248l-47 -209q183 -50 297 -164l-218 -278
q-58 64 -141.5 98.5t-163.5 34.5q-42 0 -66 -22.5t-24 -53.5q0 -25 27 -48.5t70.5 -46t96 -48t105 -59.5t96 -75t70.5 -101t27 -130q0 -200 -132.5 -339.5t-351.5 -154.5l-41 -182h-247z" />
    <glyph glyph-name="percent" unicode="%" horiz-adv-x="1421" 
d="M317 0h-159l1028 1366h162zM993 -25q-129 0 -215 77t-86 200q0 175 107 292.5t256 117.5q130 0 215.5 -76.5t85.5 -200.5q0 -174 -107.5 -292t-255.5 -118zM1004 180q49 0 86.5 54t37.5 131q0 43 -22.5 67.5t-63.5 24.5q-49 0 -86.5 -53.5t-37.5 -129.5q0 -43 23 -68.5
t63 -25.5zM446 700q-128 0 -214.5 77t-86.5 200q0 175 108 292t257 117q129 0 215 -76t86 -200q0 -174 -108 -292t-257 -118zM459 905q49 0 87 54t38 131q0 43 -22.5 67.5t-63.5 24.5q-49 0 -87 -54t-38 -131q0 -43 22.5 -67.5t63.5 -24.5z" />
    <glyph glyph-name="ampersand" unicode="&#x26;" horiz-adv-x="1175" 
d="M1065 0h-371l-24 43q-136 -68 -273 -68q-184 0 -295.5 90t-111.5 267q0 75 20 140t52 111.5t80 87.5t96 68.5t108 53.5q-24 99 -24 188q0 173 120 289t295 116q152 0 252.5 -79.5t100.5 -221.5q0 -47 -12 -89t-29.5 -74t-49 -62t-59.5 -50.5t-71.5 -43t-75 -36.5
t-80.5 -34l39 -86l49 -110q68 91 123 196l239 -151q-113 -180 -233 -305q74 -137 135 -240zM471 242q37 0 78 18q-50 94 -68 143q-40 90 -57 140q-72 -69 -72 -162q0 -60 33.5 -99.5t85.5 -39.5zM641 983q0 -37 6 -74q71 32 108.5 68.5t37.5 87.5q0 80 -60 80q-38 0 -65 -46
t-27 -116z" />
    <glyph glyph-name="quotesingle" unicode="'" horiz-adv-x="505" 
d="M371 711h-144q-2 426 -2 471q1 87 61.5 145.5t145.5 58.5q64 0 110 -45.5t46 -113.5q0 -34 -17 -74z" />
    <glyph glyph-name="parenleft" unicode="(" horiz-adv-x="667" 
d="M459 -287l-264 -121q-70 114 -108 274t-38 324q0 341 144.5 657.5t398.5 555.5l205 -164q-182 -246 -285.5 -554t-103.5 -611q0 -79 14.5 -182.5t36.5 -178.5z" />
    <glyph glyph-name="parenright" unicode=")" horiz-adv-x="669" 
d="M209 1282l264 121q70 -114 107.5 -273.5t37.5 -324.5q0 -340 -144.5 -657t-397.5 -556l-205 164q183 247 286 555.5t103 612.5q0 78 -14.5 180.5t-36.5 177.5z" />
    <glyph glyph-name="asterisk" unicode="*" horiz-adv-x="718" 
d="M485 713h-161l59 227l-209 -94l-45 143l213 76l-170 119l109 125l155 -133l39 210h160l-62 -227l209 96l47 -143l-208 -78l165 -116l-110 -125l-156 131z" />
    <glyph glyph-name="plus" unicode="+" horiz-adv-x="919" 
d="M881 590h-289l-76 -338h-225l76 338h-287l45 203h287l71 323h226l-72 -323h287z" />
    <glyph glyph-name="comma" unicode="," horiz-adv-x="567" 
d="M430 186q0 -134 -98.5 -266.5t-251.5 -204.5l-117 121q65 26 130 72.5t93 99.5q-6 -2 -24 -2q-67 0 -112.5 42.5t-45.5 123.5q0 89 70.5 154t158.5 65q81 0 139 -54.5t58 -150.5z" />
    <glyph glyph-name="hyphen" unicode="-" horiz-adv-x="561" 
d="M467 352h-438l63 289h438z" />
    <glyph glyph-name="period" unicode="." horiz-adv-x="567" 
d="M193 -27q-78 0 -133.5 57.5t-55.5 135.5q0 92 68 158.5t159 66.5q79 0 134 -56t55 -136q0 -91 -67.5 -158.5t-159.5 -67.5z" />
    <glyph glyph-name="slash" unicode="/" horiz-adv-x="630" 
d="M123 -41h-248l715 1448h248z" />
    <glyph glyph-name="zero" unicode="0" horiz-adv-x="1150" 
d="M516 -25q-206 0 -334.5 139.5t-128.5 391.5q0 232 86 433.5t239 324t337 122.5q206 0 333.5 -138t127.5 -390q0 -173 -50.5 -334.5t-137.5 -282.5t-210.5 -193.5t-261.5 -72.5zM553 317q43 0 83 43.5t67.5 110.5t48.5 147t31 153t10 128q0 145 -117 145q-43 0 -83 -43
t-67.5 -110t-48.5 -146t-31 -151.5t-10 -126.5q0 -150 117 -150z" />
    <glyph glyph-name="one" unicode="1" horiz-adv-x="909" 
d="M702 0h-389l193 872l-248 -202l-168 227l580 469h334z" />
    <glyph glyph-name="two" unicode="2" horiz-adv-x="1130" 
d="M969 0h-1006l82 367q403 249 510 325q169 119 206 195q13 28 13 55q0 49 -42.5 77t-115.5 28q-159 0 -282 -111l-166 270q93 84 220 132t263 48q148 0 266.5 -46.5t189.5 -140.5t71 -220q0 -91 -33 -170t-106.5 -157t-172.5 -150.5t-248 -163.5h426z" />
    <glyph glyph-name="three" unicode="3" horiz-adv-x="1134" 
d="M541 -25q-190 0 -352.5 74t-233.5 207l274 223q50 -77 137 -119.5t173 -42.5q77 0 114 35t37 84q0 82 -164 82q-120 0 -143 -2l78 344q18 -2 155 -2q85 0 128.5 26t43.5 74q0 44 -48.5 66.5t-137.5 22.5q-68 0 -136 -22.5t-118 -63.5l-160 247q197 178 465 178
q242 0 387.5 -92t145.5 -258q0 -129 -106 -225.5t-240 -118.5q110 -31 169.5 -105.5t59.5 -183.5q0 -123 -72 -222t-192.5 -152.5t-263.5 -53.5z" />
    <glyph glyph-name="four" unicode="4" horiz-adv-x="1159" 
d="M885 0h-387l49 233h-572l80 349l615 784h516l-176 -795h127l-74 -338h-127zM623 571l92 412l-320 -412h228z" />
    <glyph glyph-name="five" unicode="5" horiz-adv-x="1150" 
d="M547 -25q-193 0 -337 70t-224 195l278 227q45 -68 120 -109t161 -41q81 0 125.5 44.5t44.5 109.5q0 50 -43.5 80.5t-120.5 30.5q-62 0 -103 -17.5t-83 -56.5l-254 90l168 768h942l-76 -338h-553l-47 -221q49 47 101.5 66.5t129.5 19.5q153 0 248.5 -98t95.5 -271
q0 -111 -41 -211t-114 -175t-181.5 -119t-236.5 -44z" />
    <glyph glyph-name="six" unicode="6" horiz-adv-x="1142" 
d="M563 -25q-243 0 -380.5 137.5t-137.5 387.5q0 133 30.5 261t92.5 241t148.5 198.5t206 135.5t257.5 50q268 0 432 -161l-235 -273q-36 44 -94 68t-125 24q-86 0 -160.5 -57t-110.5 -145q-9 -17 -18 -64q49 60 125.5 93.5t159.5 33.5q156 0 261 -99t105 -261
q0 -111 -43 -215t-116 -182.5t-177.5 -125.5t-220.5 -47zM563 317q65 0 109.5 51t44.5 113q0 50 -45 82.5t-111 32.5q-75 0 -133 -61q-6 -24 -6 -70q0 -68 40 -108t101 -40z" />
    <glyph glyph-name="seven" unicode="7" horiz-adv-x="1050" 
d="M506 0h-434l616 1028h-538l73 338h991l-59 -268z" />
    <glyph glyph-name="eight" unicode="8" horiz-adv-x="1148" 
d="M537 -25q-93 0 -173 12.5t-149 40.5t-117.5 69.5t-76 102t-27.5 136.5q0 126 87.5 238.5t252.5 162.5q-76 36 -123 105.5t-47 154.5q0 94 46.5 170.5t123 123t169 71t191.5 24.5q98 0 187 -19t166.5 -58.5t123.5 -109t46 -161.5q0 -129 -87.5 -230.5t-230.5 -131.5
q95 -52 143 -129t48 -164q0 -123 -75.5 -217t-200.5 -142.5t-277 -48.5zM649 838q74 13 118 45.5t44 85.5q0 41 -36.5 65.5t-94.5 24.5q-59 0 -98 -33.5t-39 -81.5q0 -35 32.5 -63.5t73.5 -42.5zM543 303q70 0 114.5 37.5t44.5 93.5q0 45 -33.5 75.5t-84.5 41.5
q-77 -8 -131 -46t-54 -104q0 -46 37.5 -72t106.5 -26z" />
    <glyph glyph-name="nine" unicode="9" horiz-adv-x="1142" 
d="M659 1389q243 0 381 -137.5t138 -387.5q0 -132 -30.5 -260t-93 -241.5t-148.5 -199.5t-206 -136t-258 -50q-268 0 -432 164l236 273q36 -45 94 -70t125 -25q85 0 159.5 58t110.5 145q13 29 19 66q-48 -61 -124.5 -94t-160.5 -33q-156 0 -261.5 98.5t-105.5 259.5
q0 112 43 216t116 182t177.5 125t220.5 47zM659 1047q-65 0 -108 -51t-43 -113q0 -49 44.5 -82t109.5 -33q75 0 133 61q6 27 6 72q0 68 -40.5 107t-101.5 39z" />
    <glyph glyph-name="colon" unicode=":" horiz-adv-x="567" 
d="M193 -27q-78 0 -133.5 57.5t-55.5 135.5q0 92 67.5 158.5t159.5 66.5q78 0 133.5 -56.5t55.5 -135.5q0 -91 -67.5 -158.5t-159.5 -67.5zM328 588q-78 0 -133.5 56t-55.5 134q0 92 68 160t160 68q78 0 133 -57.5t55 -135.5q0 -92 -67.5 -158.5t-159.5 -66.5z" />
    <glyph glyph-name="semicolon" unicode=";" horiz-adv-x="567" 
d="M430 186q0 -134 -98.5 -266.5t-251.5 -204.5l-117 121q65 26 130 72.5t93 99.5q-6 -2 -24 -2q-67 0 -112.5 42.5t-45.5 123.5q0 89 70.5 154t158.5 65q81 0 139 -54.5t58 -150.5zM328 588q-78 0 -133.5 56t-55.5 134q0 92 68 160t160 68q78 0 133 -57.5t55 -135.5
q0 -92 -67.5 -158.5t-159.5 -66.5z" />
    <glyph glyph-name="less" unicode="&#x3c;" horiz-adv-x="919" 
d="M803 246l-731 315l55 250l870 315l-55 -252l-614 -200l526 -195z" />
    <glyph glyph-name="equal" unicode="=" horiz-adv-x="919" 
d="M920 772h-801l45 203h801zM836 393h-799l43 205h801z" />
    <glyph glyph-name="greater" unicode="&#x3e;" horiz-adv-x="919" 
d="M872 561l-870 -315l57 252l615 196l-529 201l52 231l731 -315z" />
    <glyph glyph-name="question" unicode="?" horiz-adv-x="806" 
d="M565 532l-315 -81q-19 63 -19 131q0 60 15.5 111t40.5 86t55 64t60.5 50.5t55.5 39.5t40.5 37t15.5 38q0 49 -72 49q-78 0 -137 -53l-133 258q158 124 365 124q104 0 190.5 -32t140.5 -97t54 -151q0 -65 -20 -120.5t-52.5 -94t-71.5 -72t-78.5 -61t-72 -54t-52.5 -58.5
t-20 -68q0 -26 10 -46zM319 -27q-79 0 -133.5 57t-54.5 136q0 92 67.5 158.5t159.5 66.5q78 0 133.5 -56.5t55.5 -135.5q0 -91 -68.5 -158.5t-159.5 -67.5z" />
    <glyph glyph-name="at" unicode="@" horiz-adv-x="1488" 
d="M688 -143q-131 0 -239 45.5t-181.5 126.5t-114 194t-40.5 246q0 163 63.5 317t169.5 268t251 183.5t300 69.5q123 0 228 -41.5t177.5 -114t113 -173t40.5 -216.5q0 -127 -37 -239.5t-96.5 -187.5t-134 -118t-150.5 -43q-83 0 -135.5 36.5t-68.5 96.5l-5 19
q-104 -152 -254 -152q-117 0 -188.5 82.5t-71.5 232.5q0 133 55.5 254.5t154.5 198t214 76.5q145 0 199 -117l20 92h304l-97 -456q-6 -30 -6 -56q0 -80 55 -80q52 0 98 101t46 258q0 214 -125 336.5t-342 122.5q-138 0 -266 -62.5t-220 -165.5t-147 -239t-55 -277
q0 -111 33 -207t94.5 -168.5t156 -114.5t211.5 -42q177 0 344 110l50 -67q-197 -129 -404 -129zM725 414q31 0 57.5 15.5t40 31t31.5 41.5l43 213q-10 27 -33 46t-57 19q-80 0 -129 -79.5t-49 -170.5q0 -54 25 -85t71 -31z" />
    <glyph glyph-name="A" unicode="A" horiz-adv-x="1222" 
d="M1137 0h-406v176h-354l-78 -176h-434l702 1366h469zM731 514l-2 453l-201 -453h203z" />
    <glyph glyph-name="B" unicode="B" horiz-adv-x="1228" 
d="M711 0h-725l303 1366h600q94 0 168.5 -27.5t120 -74t69 -104t23.5 -120.5q0 -134 -88 -242t-215 -120q91 -25 138.5 -98t47.5 -166q0 -58 -14.5 -114t-48.5 -111t-84 -96.5t-126 -67t-169 -25.5zM565 856h187q51 0 78.5 32t27.5 77q0 33 -22 52t-64 19h-166zM645 330
q54 0 88.5 32t34.5 84q0 37 -22.5 58.5t-61.5 21.5h-192l-43 -196h196z" />
    <glyph glyph-name="C" unicode="C" horiz-adv-x="1191" 
d="M623 -25q-255 0 -413.5 151.5t-158.5 403.5q0 133 31 259t93 234.5t148 190t203.5 128.5t251.5 47q102 0 186.5 -27t142 -71.5t100 -105.5t65.5 -123.5t33 -131.5l-367 -94q-9 92 -56.5 151.5t-123.5 59.5q-89 0 -161.5 -79t-110 -194t-37.5 -233q0 -101 52 -162.5
t140 -61.5q61 0 120.5 44.5t92.5 115.5l307 -162q-96 -171 -237.5 -255.5t-300.5 -84.5z" />
    <glyph glyph-name="D" unicode="D" horiz-adv-x="1290" 
d="M504 0h-518l303 1366h506q97 0 188 -37t163.5 -103.5t116.5 -169.5t44 -225q0 -120 -24 -232t-83 -223t-147.5 -192.5t-230 -132.5t-318.5 -51zM451 338h122q65 0 120.5 28t94.5 74.5t66.5 108t41 128.5t13.5 136q0 99 -51.5 157t-134.5 58h-121z" />
    <glyph glyph-name="E" unicode="E" 
d="M850 0h-864l303 1366h862l-76 -338h-473l-37 -168h461l-76 -338h-461l-38 -184h473z" />
    <glyph glyph-name="F" unicode="F" horiz-adv-x="1015" 
d="M375 0h-389l303 1366h862l-76 -338h-473l-37 -168h461l-76 -338h-461z" />
    <glyph glyph-name="G" unicode="G" horiz-adv-x="1251" 
d="M623 -25q-253 0 -412.5 151.5t-159.5 403.5q0 170 50.5 324t143 273.5t236.5 190.5t318 71q108 0 196 -33t145.5 -90.5t92.5 -126.5t49 -148l-342 -114q-8 68 -58 119t-122 51q-86 0 -158.5 -75t-112.5 -191t-40 -240q0 -99 50.5 -161.5t143.5 -62.5q79 0 150 64l18 82
h-190l77 338h551l-125 -561q-90 -129 -220 -197t-281 -68z" />
    <glyph glyph-name="H" unicode="H" horiz-adv-x="1314" 
d="M1106 0h-387l117 535h-344l-117 -535h-389l303 1366h387l-109 -494h344l109 494h387z" />
    <glyph glyph-name="I" unicode="I" horiz-adv-x="583" 
d="M375 0h-389l303 1366h387z" />
    <glyph glyph-name="J" unicode="J" horiz-adv-x="894" 
d="M276 -25q-101 0 -196.5 26.5t-155.5 78.5l174 303q23 -28 65 -47t81 -19q61 0 101 35.5t54 100.5l203 913h387l-205 -926q-54 -244 -173.5 -354.5t-334.5 -110.5z" />
    <glyph glyph-name="K" unicode="K" horiz-adv-x="1224" 
d="M1137 0h-430l-144 475l-114 -145l-74 -330h-389l303 1366h387l-109 -496l379 496h469l-557 -635z" />
    <glyph glyph-name="L" unicode="L" horiz-adv-x="954" 
d="M797 0h-811l303 1366h387l-225 -1028h421z" />
    <glyph glyph-name="M" unicode="M" horiz-adv-x="1613" 
d="M1405 0h-385l162 739l-412 -739h-147l-86 739l-162 -739h-389l303 1366h497l66 -602l338 602h516z" />
    <glyph glyph-name="N" unicode="N" horiz-adv-x="1312" 
d="M1104 0h-367l-221 639l-141 -639h-389l303 1366h393l205 -598l131 598h387z" />
    <glyph glyph-name="O" unicode="O" horiz-adv-x="1318" 
d="M623 -25q-259 0 -415.5 155t-156.5 400q0 129 30 253t91.5 233.5t147 192.5t204 131.5t254.5 48.5q256 0 413 -155.5t157 -397.5q0 -129 -30 -253.5t-91.5 -234.5t-147 -193t-203.5 -131.5t-253 -48.5zM641 317q88 0 160.5 79t110.5 194t38 233q0 99 -52.5 161.5
t-141.5 62.5q-88 0 -160 -79t-109.5 -194t-37.5 -233q0 -99 51.5 -161.5t140.5 -62.5z" />
    <glyph glyph-name="P" unicode="P" horiz-adv-x="1185" 
d="M375 0h-389l303 1366h571q171 0 282 -113.5t111 -279.5q0 -74 -19 -146t-63.5 -142.5t-109 -123.5t-165 -86t-222.5 -33h-201zM547 780h153q63 0 107.5 44t44.5 106q0 46 -27.5 72t-74.5 26h-148z" />
    <glyph glyph-name="Q" unicode="Q" horiz-adv-x="1320" 
d="M623 -25q-259 0 -415.5 155t-156.5 400q0 129 30 253t91.5 233.5t147 192.5t204 131.5t254.5 48.5q256 0 413 -155.5t157 -397.5q0 -226 -91 -427t-256 -317l31 -80l-295 -100l-26 70q-51 -7 -88 -7zM530 465l297 98l33 -88q42 73 66 165.5t24 182.5q0 99 -52.5 161.5
t-141.5 62.5q-88 0 -160 -79t-109.5 -194t-37.5 -233q0 -80 35.5 -138t97.5 -77z" />
    <glyph glyph-name="R" unicode="R" horiz-adv-x="1216" 
d="M1055 0h-416l-55 442h-111l-98 -442h-389l303 1366h545q177 0 297 -113t120 -286q0 -163 -87 -296.5t-203 -178.5zM547 780h153q66 0 108 41t42 105q0 49 -29 75.5t-73 26.5h-146z" />
    <glyph glyph-name="S" unicode="S" horiz-adv-x="1075" 
d="M506 -25q-174 0 -322 60t-231 160l223 280q54 -72 150.5 -118t195.5 -46q50 0 78.5 24t28.5 58q0 28 -36.5 56t-91.5 51.5t-119 60.5t-119 79t-91.5 109.5t-36.5 149.5q0 95 37.5 183t104.5 156.5t169.5 109.5t223.5 41q138 0 268 -49.5t219 -139.5l-217 -278
q-58 64 -141.5 98.5t-163.5 34.5q-42 0 -66 -22.5t-24 -53.5q0 -25 27 -48.5t70.5 -46t95.5 -48t104.5 -59.5t96 -75t70.5 -101t27 -130q0 -102 -37.5 -193t-105.5 -158t-168 -106t-219 -39z" />
    <glyph glyph-name="T" unicode="T" 
d="M598 0h-389l227 1028h-282l73 338h953l-76 -338h-281z" />
    <glyph glyph-name="U" unicode="U" horiz-adv-x="1331" 
d="M627 -25q-250 0 -393.5 123t-143.5 326q0 34 8 84l191 858h391l-193 -870q-6 -36 -6 -47q2 -56 44 -96t116 -40q159 0 199 183l192 870h391l-192 -864q-54 -252 -206.5 -389.5t-397.5 -137.5z" />
    <glyph glyph-name="V" unicode="V" horiz-adv-x="1222" 
d="M735 0h-469l-100 1366h405l15 -913l418 913h434z" />
    <glyph glyph-name="W" unicode="W" horiz-adv-x="1677" 
d="M1255 0h-397l33 741l-293 -741h-395l-21 1366h408l-45 -788l329 788h293l-14 -788l301 788h422z" />
    <glyph glyph-name="X" unicode="X" horiz-adv-x="1222" 
d="M1137 0h-424l-119 383l-268 -383h-461l559 721l-234 645h422l101 -356l237 356h463l-528 -686z" />
    <glyph glyph-name="Y" unicode="Y" horiz-adv-x="1181" 
d="M676 0h-389l121 547l-242 819h405l91 -467l294 467h441l-602 -819z" />
    <glyph glyph-name="Z" unicode="Z" horiz-adv-x="1036" 
d="M862 0h-909l70 315l555 713h-398l74 338h895l-68 -307l-561 -721h418z" />
    <glyph glyph-name="bracketleft" unicode="[" horiz-adv-x="557" 
d="M324 -389h-430l395 1778h430l-49 -220h-189l-295 -1339h187z" />
    <glyph glyph-name="backslash" unicode="\" horiz-adv-x="630" 
d="M272 -41l-82 1448h238l82 -1448h-238z" />
    <glyph glyph-name="bracketright" unicode="]" horiz-adv-x="557" 
d="M268 -389h-428l47 219h189l297 1339h-187l47 220h431z" />
    <glyph glyph-name="asciicircum" unicode="^" horiz-adv-x="813" 
d="M813 682h-229l-31 436l-223 -436h-252l397 684h248z" />
    <glyph glyph-name="underscore" unicode="_" horiz-adv-x="864" 
d="M690 -303h-874l51 221h874z" />
    <glyph glyph-name="grave" unicode="`" horiz-adv-x="495" 
d="M637 1139h-221l-209 295h291z" />
    <glyph glyph-name="a" unicode="a" horiz-adv-x="1083" 
d="M487 1014q181 0 248 -133l25 108h344l-219 -989h-344l24 106q-106 -131 -241 -131q-143 0 -223.5 96.5t-80.5 278.5q0 84 17.5 173.5t56 177.5t92 157.5t132 112.5t169.5 43zM561 709q-55 0 -99 -50t-64.5 -116.5t-20.5 -128.5q0 -61 34 -97t89 -36q64 0 118 67l66 293
q-40 68 -123 68z" />
    <glyph glyph-name="b" unicode="b" horiz-adv-x="1083" 
d="M596 -25q-182 0 -250 134l-22 -109h-347l302 1366h346l-109 -483q106 131 242 131q143 0 223 -96t80 -279q0 -84 -17.5 -173.5t-56 -177.5t-91.5 -157.5t-131 -112.5t-169 -43zM520 281q55 0 99 50t65 116t21 128q0 61 -34 97.5t-89 36.5q-66 0 -117 -68l-66 -291
q38 -69 121 -69z" />
    <glyph glyph-name="c" unicode="c" horiz-adv-x="894" 
d="M479 -25q-209 0 -331.5 117.5t-122.5 313.5q0 121 41.5 232t113 194t175.5 132.5t223 49.5q124 0 218.5 -43t145.5 -111l-209 -225q-48 74 -141 74q-92 0 -153.5 -80t-61.5 -191q0 -73 46.5 -115t117.5 -42q79 0 139 63l117 -250q-52 -50 -135 -84.5t-183 -34.5z" />
    <glyph glyph-name="d" unicode="d" horiz-adv-x="1083" 
d="M487 1014q181 0 248 -133l109 485h344l-303 -1366h-344l24 106q-106 -131 -241 -131q-143 0 -223.5 96.5t-80.5 278.5q0 84 17.5 173.5t56 177.5t92 157.5t132 112.5t169.5 43zM561 709q-55 0 -99 -50t-64.5 -116.5t-20.5 -128.5q0 -61 34 -97t89 -36q64 0 118 67l66 293
q-40 68 -123 68z" />
    <glyph glyph-name="e" unicode="e" horiz-adv-x="1001" 
d="M492 -25q-216 0 -341.5 113.5t-125.5 314.5q0 113 39 222.5t108 196t173 139.5t224 53q189 0 299.5 -110t110.5 -300q0 -101 -33 -219h-592v-16q0 -12 9.5 -31t29.5 -40.5t58.5 -36.5t87.5 -15q113 0 188 55l107 -219q-67 -51 -159.5 -79t-182.5 -28zM395 612h275
q2 8 2 27q0 40 -32.5 73t-90.5 33q-63 0 -104 -42.5t-50 -90.5z" />
    <glyph glyph-name="f" unicode="f" horiz-adv-x="661" 
d="M379 0h-346l151 690h-125l68 299h123l10 47q79 350 391 350q81 0 155.5 -21.5t115.5 -61.5l-146 -222q-30 33 -78 33q-76 0 -94 -84l-8 -41h160l-68 -299h-158z" />
    <glyph glyph-name="g" unicode="g" horiz-adv-x="1081" 
d="M360 -401q-290 0 -442 155l182 240q40 -51 110 -80t142 -29q75 0 127 45.5t78 157.5l18 74q-98 -133 -241 -133q-141 0 -225 88t-84 266q0 83 17 169t54.5 169.5t89.5 148t128.5 104.5t166.5 40q75 0 147 -34t105 -99l25 108h346l-203 -901q-108 -489 -541 -489zM508 334
q67 0 119 69l51 232q-39 74 -129 74q-50 0 -90 -40t-59 -96.5t-19 -115.5q0 -58 34 -90.5t93 -32.5z" />
    <glyph glyph-name="h" unicode="h" horiz-adv-x="1095" 
d="M899 0h-346l129 590q6 30 6 47q0 35 -25 53.5t-65 18.5q-68 0 -137 -86l-137 -623h-347l302 1366h346l-111 -492q130 140 287 140q123 0 193.5 -61.5t70.5 -159.5q0 -30 -8 -66z" />
    <glyph glyph-name="i" unicode="i" horiz-adv-x="520" 
d="M406 1069q-75 0 -126 49t-51 117q0 101 70 163t152 62q75 0 125.5 -48.5t50.5 -117.5q0 -101 -69.5 -163t-151.5 -62zM324 0h-349l222 989h346z" />
    <glyph glyph-name="j" unicode="j" horiz-adv-x="520" 
d="M-94 -401q-167 0 -242 63l123 252q25 -29 80 -29q83 0 110 123l220 981h346l-219 -981q-21 -97 -51.5 -168.5t-79 -127.5t-120.5 -84.5t-167 -28.5zM406 1069q-75 0 -126 49t-51 117q0 101 70 163t152 62q75 0 125.5 -48.5t50.5 -117.5q0 -101 -69.5 -163t-151.5 -62z
" />
    <glyph glyph-name="k" unicode="k" 
d="M934 0h-397l-68 336l-98 -119l-47 -217h-349l304 1366h346l-160 -717l258 340h410l-379 -442z" />
    <glyph glyph-name="l" unicode="l" horiz-adv-x="520" 
d="M324 0h-349l304 1366h346z" />
    <glyph glyph-name="m" unicode="m" horiz-adv-x="1632" 
d="M1434 0h-347l130 584q8 40 8 53q0 33 -22 52.5t-58 19.5q-69 0 -129 -86l-137 -623h-347l130 584q8 40 8 53q0 34 -22 53t-60 19q-69 0 -127 -86l-137 -623h-349l222 989h346l-29 -115q48 58 120.5 99t156.5 41q59 0 109.5 -19t80 -46.5t45.5 -56t16 -50.5l-2 -4
q58 77 136 126.5t170 49.5q109 0 182.5 -59.5t73.5 -161.5q0 -30 -9 -66z" />
    <glyph glyph-name="n" unicode="n" horiz-adv-x="1095" 
d="M897 0h-346l129 584q8 48 8 53q0 35 -23.5 53.5t-58.5 18.5q-76 0 -145 -86l-137 -623h-349l222 989h346l-29 -115q130 140 287 140q123 0 193.5 -61.5t70.5 -159.5q0 -38 -8 -66z" />
    <glyph glyph-name="o" unicode="o" horiz-adv-x="1052" 
d="M479 -25q-220 0 -337 119.5t-117 313.5q0 111 39 219t107.5 194.5t172.5 139.5t225 53q221 0 339 -119t118 -313q0 -89 -24 -176.5t-72 -165t-113 -137t-152.5 -94t-185.5 -34.5zM496 281q54 0 97.5 53.5t63 119.5t19.5 124q0 131 -123 131q-53 0 -96 -53t-62.5 -119.5
t-19.5 -122.5q0 -66 31.5 -99.5t89.5 -33.5z" />
    <glyph glyph-name="p" unicode="p" horiz-adv-x="1081" 
d="M596 -25q-182 0 -250 134l-106 -486h-346l303 1366h346l-27 -106q106 131 242 131q143 0 223 -96t80 -279q0 -84 -17.5 -173.5t-56 -177.5t-91.5 -157.5t-131 -112.5t-169 -43zM520 281q55 0 99 50t65 116t21 128q0 61 -34 97.5t-89 36.5q-66 0 -117 -68l-66 -291
q38 -69 121 -69z" />
    <glyph glyph-name="q" unicode="q" horiz-adv-x="1081" 
d="M487 1014q181 0 248 -133l25 108h344l-303 -1366h-344l108 483q-106 -131 -241 -131q-143 0 -223.5 96.5t-80.5 278.5q0 84 17.5 173.5t56 177.5t92 157.5t132 112.5t169.5 43zM561 709q-55 0 -99 -50t-64.5 -116.5t-20.5 -128.5q0 -61 34 -97t89 -36q64 0 118 67l66 293
q-40 68 -123 68z" />
    <glyph glyph-name="r" unicode="r" horiz-adv-x="716" 
d="M324 0h-349l222 989h346l-27 -110q50 62 127 100.5t164 38.5l-76 -338q-37 14 -86 14q-108 0 -188 -86z" />
    <glyph glyph-name="s" unicode="s" horiz-adv-x="892" 
d="M397 -25q-132 0 -254.5 48t-195.5 122l180 220q44 -49 125.5 -90.5t159.5 -41.5q35 0 56 14t21 36t-30 41t-74.5 33t-97 38t-97 53t-74.5 82t-30 121q0 70 27 134.5t77 116t130 82t178 30.5q115 0 223.5 -40t185.5 -114l-166 -213q-35 39 -104 74t-137 35q-36 0 -56 -14
t-20 -35q0 -18 30.5 -34.5t76 -30t98.5 -38t98.5 -55t76 -84t30.5 -121.5q0 -155 -119 -262t-318 -107z" />
    <glyph glyph-name="t" unicode="t" horiz-adv-x="679" 
d="M414 -25q-155 0 -241.5 58t-86.5 172q0 44 10 90l88 395h-125l68 299h125l59 271h346l-59 -271h158l-68 -299h-158l-67 -301q-4 -32 -4 -43q0 -65 69 -65q31 0 43 12l-4 -285q-54 -33 -153 -33z" />
    <glyph glyph-name="u" unicode="u" horiz-adv-x="1093" 
d="M195 989h346l-131 -592q-7 -31 -7 -47q0 -32 24.5 -50.5t61.5 -18.5q74 0 142 86l139 622h346l-219 -989h-346l27 115q-130 -140 -285 -140q-123 0 -194.5 62t-71.5 160q0 3 8 67z" />
    <glyph glyph-name="v" unicode="v" horiz-adv-x="993" 
d="M569 0h-366l-115 989h354l25 -573l283 573h374z" />
    <glyph glyph-name="w" unicode="w" horiz-adv-x="1515" 
d="M1157 0h-371l-18 553l-260 -553h-371l-43 989h346l-6 -551l260 551h316l22 -551l240 551h366z" />
    <glyph glyph-name="x" unicode="x" horiz-adv-x="962" 
d="M868 0h-362l-68 264l-186 -264h-381l391 502l-156 487h361l57 -246l166 246h381l-375 -487z" />
    <glyph glyph-name="y" unicode="y" horiz-adv-x="993" 
d="M-98 -373l110 289q24 -12 76 -12q59 0 86 43l29 47l-115 995h354l25 -573l283 573h374l-626 -1116q-88 -157 -178.5 -215.5t-225.5 -58.5q-122 0 -192 28z" />
    <glyph glyph-name="z" unicode="z" horiz-adv-x="874" 
d="M711 0h-768l55 254l399 436h-303l68 299h760l-54 -241l-409 -447h317z" />
    <glyph glyph-name="braceleft" unicode="{" horiz-adv-x="567" 
d="M334 -389h-62q-119 0 -207 74.5t-88 187.5q0 26 7 61l77 342q5 30 5 37q0 43 -22 70t-60 27l41 182q108 0 135 131l76 342q36 161 140.5 242.5t264.5 81.5h88l-49 -220h-88q-43 0 -73 -26.5t-42 -77.5l-88 -403q-16 -74 -48 -121.5t-87 -65.5q59 -33 59 -117
q0 -36 -8 -69l-76 -344q-4 -20 -4 -35q0 -36 21.5 -58t54.5 -22h82z" />
    <glyph glyph-name="bar" unicode="|" horiz-adv-x="415" 
d="M360 -41h-221v1448h221v-1448z" />
    <glyph glyph-name="braceright" unicode="}" horiz-adv-x="567" 
d="M231 1389h62q119 0 207 -75t88 -188q0 -34 -8 -61l-76 -342q-4 -20 -4 -35q0 -43 22 -69.5t60 -26.5l-41 -182q-108 0 -135 -134l-76 -342q-36 -160 -140.5 -241.5t-265.5 -81.5h-88l47 219h88q45 0 75 26.5t42 77.5l88 406q34 151 135 186q-59 29 -59 115q0 37 8 70
l76 344q4 20 4 35q0 36 -21.5 57.5t-54.5 21.5h-82z" />
    <glyph glyph-name="asciitilde" unicode="~" horiz-adv-x="978" 
d="M893 1366l219 -23q-96 -516 -383 -516q-58 0 -97.5 18.5t-58 48.5t-28.5 66t-11.5 72t-3 66t-8.5 48.5t-22 18.5q-38 0 -79.5 -93t-70.5 -247l-223 23q14 76 33 141.5t51.5 137.5t72.5 122.5t99.5 83.5t130.5 33q58 0 97.5 -19t58 -48.5t28.5 -66t11.5 -73t3 -66
t8.5 -48.5t22 -19q39 0 80.5 94.5t69.5 245.5z" />
    <glyph glyph-name="nbspace" unicode="&#xa0;" horiz-adv-x="419" 
 />
    <glyph glyph-name="exclamdown" unicode="&#xa1;" horiz-adv-x="567" 
d="M127 496h309l-139 -873h-414zM371 1016q79 0 133.5 -56t54.5 -135q0 -92 -67.5 -159.5t-159.5 -67.5q-78 0 -133.5 57.5t-55.5 135.5q0 92 68.5 158.5t159.5 66.5z" />
    <glyph glyph-name="cent" unicode="&#xa2;" horiz-adv-x="894" 
d="M236 -205l47 213q-123 46 -190.5 149.5t-67.5 248.5q0 149 59.5 279t170 217t249.5 106l35 149h243l-39 -168q132 -43 199 -129l-209 -225q-48 74 -141 74q-92 0 -153.5 -80t-61.5 -191q0 -73 46.5 -115t117.5 -42q79 0 139 63l117 -250q-46 -44 -118.5 -77t-158.5 -40
l-41 -182h-243z" />
    <glyph glyph-name="sterling" unicode="&#xa3;" horiz-adv-x="1075" 
d="M72 565l47 211h82q-21 75 -21 144q0 83 30 157t82 129.5t120.5 96.5t147 62t159.5 21q184 0 310.5 -81.5t150.5 -237.5l-340 -119q-12 127 -109 127q-60 0 -97.5 -62t-37.5 -147q0 -42 10 -90h207l-47 -211h-164q-19 -73 -57.5 -130t-87.5 -85q52 15 80 15
q50 0 118.5 -24t112.5 -24q47 0 78.5 15.5t62.5 44.5l52 -309q-89 -93 -244 -93q-74 0 -156 21.5t-151 43t-113 21.5q-93 0 -203 -75l-59 256q98 52 155.5 134t57.5 177v12h-176z" />
    <glyph glyph-name="currency" unicode="&#xa4;" horiz-adv-x="1167" 
d="M584 184q-124 0 -238 47l-186 -151l-176 221l166 133q-33 76 -33 174q0 100 35 200.5t98 178.5l-109 143l228 183l120 -162q80 27 175 27q126 0 231 -50l186 150l176 -215l-165 -135q32 -74 32 -178q0 -100 -36 -200t-99 -175l109 -137l-226 -183l-122 156
q-76 -27 -166 -27zM457 631q0 -68 36 -109t103 -41q78 0 133 71t55 177q0 69 -36 110.5t-103 41.5q-80 0 -134 -72t-54 -178z" />
    <glyph glyph-name="yen" unicode="&#xa5;" horiz-adv-x="1181" 
d="M674 0h-389l49 223h-344l47 203h342l27 121h-343l48 203h235l-182 616h405l90 -467l295 467h441l-453 -616h240l-47 -203h-342l-27 -121h342l-45 -203h-342z" />
    <glyph glyph-name="brokenbar" unicode="&#xa6;" horiz-adv-x="415" 
d="M360 -41h-221v647h221v-647zM360 760h-221v647h221v-647z" />
    <glyph glyph-name="section" unicode="&#xa7;" horiz-adv-x="905" 
d="M909 709q0 -103 -58 -187t-155 -129q49 -31 75 -82.5t26 -109.5q0 -158 -121.5 -262.5t-304.5 -104.5q-147 0 -272.5 41.5t-196.5 116.5l182 213q46 -57 121 -92t153 -35q47 0 74 22t27 52q0 25 -22 45.5t-57.5 36t-78 32t-85 39.5t-78 52t-57.5 76t-22 106
q0 101 58.5 179.5t165.5 119.5q-51 29 -81 84.5t-30 117.5q0 154 118 250t292 96q281 0 426 -145l-172 -188q-40 44 -104 71t-130 27q-47 0 -71.5 -21.5t-24.5 -50.5q0 -23 22 -42.5t58 -35t79 -32t85.5 -39t78.5 -50.5t58 -72.5t22 -98.5zM571 625q0 36 -21 62.5t-52 37.5
q-105 -22 -105 -119q0 -33 24 -60t68 -42q40 15 63 48.5t23 72.5z" />
    <glyph glyph-name="dieresis" unicode="&#xa8;" horiz-adv-x="624" 
d="M862 1282q0 -75 -60.5 -133.5t-135.5 -58.5q-66 0 -110 44t-44 109q0 76 60 134.5t137 58.5q65 0 109 -44t44 -110zM451 1282q0 -75 -60 -133.5t-135 -58.5q-66 0 -110 44t-44 109q0 76 59.5 134.5t135.5 58.5q66 0 110 -44t44 -110z" />
    <glyph glyph-name="copyright" unicode="&#xa9;" horiz-adv-x="1593" 
d="M1544 684q0 -143 -56 -274t-151 -226t-226 -151t-275 -56q-191 0 -353.5 95t-257 258t-94.5 354q0 192 94.5 355t257 257.5t353.5 94.5q192 0 355 -94.5t258 -257.5t95 -355zM1460 684q0 168 -84 311.5t-228 227.5t-312 84q-167 0 -310.5 -84t-227 -227.5t-83.5 -311.5
q0 -125 49.5 -240.5t133 -199t198.5 -133.5t240 -50q126 0 241.5 50t199 133.5t133.5 199t50 240.5zM1040 449l60 -80q-59 -50 -136 -81.5t-155 -31.5q-176 0 -283.5 105t-107.5 268q0 102 39 193t104 154.5t151.5 100.5t178.5 37q107 0 194 -42t138 -124l-88 -63
q-75 135 -250 135q-66 0 -130.5 -29.5t-115 -79.5t-82 -123t-31.5 -155q0 -118 77 -201.5t208 -83.5q124 0 229 101z" />
    <glyph glyph-name="ordfeminine" unicode="&#xaa;" horiz-adv-x="770" 
d="M514 1137q-54 0 -91.5 -65t-37.5 -140q0 -42 21 -64t57 -22q41 0 76 41l47 215q-24 35 -72 35zM633 1311h244l-142 -643h-246l15 67q-67 -84 -160 -84q-92 0 -151.5 64.5t-59.5 187.5q0 106 40 203.5t112.5 159t158.5 61.5q119 0 174 -82z" />
    <glyph glyph-name="guillemotleft" unicode="&#xab;" horiz-adv-x="1087" 
d="M512 129h-279l-174 369l338 362h291l-346 -371zM936 129h-279l-174 369l338 362h291l-346 -371z" />
    <glyph glyph-name="logicalnot" unicode="&#xac;" horiz-adv-x="937" 
d="M965 975l-129 -582h-209l82 379h-590l45 203h801z" />
    <glyph glyph-name="uni00AD" unicode="&#xad;" horiz-adv-x="561" 
d="M467 352h-438l63 289h438z" />
    <glyph glyph-name="registered" unicode="&#xae;" horiz-adv-x="1011" 
d="M1040 952q0 -180 -127.5 -307t-308.5 -127q-180 0 -306 127t-126 307q0 181 127 307.5t307 126.5q119 0 219 -57.5t157.5 -157.5t57.5 -219zM971 952q0 153 -107 259t-260 106q-151 0 -255.5 -105.5t-104.5 -259.5q0 -150 105 -256t255 -106q152 0 259.5 106.5
t107.5 255.5zM760 702h-88l-86 197h-84l-43 -197h-76l109 498h192q67 0 108.5 -37.5t41.5 -93.5q0 -70 -51 -119t-113 -49zM754 1065q0 34 -21.5 54t-64.5 20h-113l-39 -174h127q49 0 80 28.5t31 71.5z" />
    <glyph glyph-name="macron" unicode="&#xaf;" horiz-adv-x="647" 
d="M786 1133h-645l41 188h645z" />
    <glyph glyph-name="degree" unicode="&#xb0;" horiz-adv-x="669" 
d="M764 1087q0 -123 -88 -209.5t-211 -86.5q-124 0 -210.5 86.5t-86.5 209.5q0 125 86.5 212t210.5 87q123 0 211 -87.5t88 -211.5zM588 1087q0 51 -36 88t-87 37t-86 -37t-35 -88t34 -85.5t85 -34.5t88 34.5t37 85.5z" />
    <glyph glyph-name="plusminus" unicode="&#xb1;" horiz-adv-x="919" 
d="M889 635h-287l-76 -340h-225l76 340h-289l45 203h289l72 321h225l-74 -321h289zM752 10h-801l43 203h803z" />
    <glyph glyph-name="twosuperior" unicode="&#xb2;" horiz-adv-x="747" 
d="M788 862h-641l46 195q208 130 303 196.5t125 101t30 70.5q0 31 -25.5 49.5t-70.5 18.5q-52 0 -104 -22.5t-91 -61.5l-106 168q61 54 147.5 85.5t171.5 31.5q150 0 244 -65.5t94 -176.5q0 -99 -83.5 -182.5t-288.5 -206.5h295z" />
    <glyph glyph-name="threesuperior" unicode="&#xb3;" horiz-adv-x="747" 
d="M842 1096q0 -99 -90 -173.5t-234 -74.5q-121 0 -219 39t-145 108l165 154q32 -49 82.5 -74.5t102.5 -25.5q44 0 67 21t23 50q0 58 -123 58q-56 0 -70 -2l43 198q14 -2 107 -2q102 0 102 64q0 29 -31 43t-79 14q-104 0 -176 -66l-99 152q59 56 137.5 85.5t161.5 29.5
q158 0 251 -58.5t93 -160.5q0 -74 -56.5 -137t-158.5 -70q70 -19 108 -64t38 -108z" />
    <glyph glyph-name="acute" unicode="&#xb4;" horiz-adv-x="495" 
d="M702 1434l-337 -295h-228l271 295h294z" />
    <glyph glyph-name="mu" unicode="&#xb5;" horiz-adv-x="1124" 
d="M322 -8l-82 -369h-349l308 1366h346l-135 -600q-11 -51 9.5 -79.5t67.5 -28.5q77 0 146 86l137 622h346l-143 -649q-6 -28 5.5 -43.5t37.5 -15.5q23 0 35 6l-41 -291q-68 -21 -158 -21q-117 0 -173 43t-65 138q-38 -84 -98.5 -132.5t-124.5 -48.5q-45 0 -69 17z" />
    <glyph glyph-name="paragraph" unicode="&#xb6;" horiz-adv-x="919" 
d="M707 -205h-156l315 1415h-145l-315 -1415h-156l192 867q-116 0 -198 91t-82 228q0 97 50.5 185t143 144t203.5 56h496z" />
    <glyph glyph-name="periodcentered" unicode="&#xb7;" horiz-adv-x="567" 
d="M264 293q-79 0 -133.5 56.5t-54.5 135.5q0 92 67.5 159t159.5 67q78 0 132 -56.5t54 -136.5q0 -91 -67 -158t-158 -67z" />
    <glyph glyph-name="cedilla" unicode="&#xb8;" horiz-adv-x="446" 
d="M57 -408q-153 0 -239 86l82 117q69 -69 155 -69q33 0 53.5 14.5t20.5 40.5q0 14 -11 24.5t-30 10.5q-26 0 -47 -25l-102 66l100 166h156l-78 -121q23 18 53 18q51 0 84 -35.5t33 -95.5q0 -88 -65.5 -142.5t-164.5 -54.5z" />
    <glyph glyph-name="onesuperior" unicode="&#xb9;" horiz-adv-x="624" 
d="M608 862h-256l107 490l-148 -119l-112 151l370 297h219z" />
    <glyph glyph-name="ordmasculine" unicode="&#xba;" horiz-adv-x="749" 
d="M453 651q-147 0 -231.5 80.5t-84.5 206.5q0 161 110 275t267 114q147 0 231 -80t84 -205q0 -161 -109.5 -276t-266.5 -115zM461 846q31 0 55.5 23t38 57t20.5 67t7 58q0 79 -76 79q-31 0 -55.5 -23t-37.5 -57t-19.5 -66t-6.5 -58q0 -80 74 -80z" />
    <glyph glyph-name="guillemotright" unicode="&#xbb;" horiz-adv-x="1087" 
d="M154 860h278l174 -368l-338 -363h-291l347 373zM578 860h278l174 -368l-338 -363h-291l344 373z" />
    <glyph glyph-name="onequarter" unicode="&#xbc;" horiz-adv-x="1656" 
d="M539 547h-256l106 489l-147 -118l-113 151l371 297h219zM1554 152h-79l-33 -152h-254l33 152h-361l41 180l389 487h332l-102 -469h79zM1266 350l49 223l-176 -223h127zM1446 1366l-1030 -1366h-162l1030 1366h162z" />
    <glyph glyph-name="onehalf" unicode="&#xbd;" horiz-adv-x="1726" 
d="M539 547h-256l106 489l-147 -118l-113 151l371 297h219zM1579 0h-641l45 195q209 130 304 196.5t125 101.5t30 70q0 31 -25.5 49.5t-70.5 18.5q-52 0 -104 -22.5t-91 -61.5l-107 168q61 54 148 85t172 31q150 0 244 -65t94 -176q0 -99 -83.5 -182.5t-289.5 -206.5h295z
M1446 1366l-1030 -1366h-162l1030 1366h162z" />
    <glyph glyph-name="threequarters" unicode="&#xbe;" horiz-adv-x="1761" 
d="M1661 152h-80l-33 -152h-254l33 152h-360l41 180l389 487h332l-103 -469h80zM1372 350l49 223l-176 -223h127zM1552 1366l-1030 -1366h-162l1031 1366h161zM772 780q0 -99 -89.5 -173.5t-233.5 -74.5q-121 0 -219.5 39.5t-145.5 108.5l166 154q32 -49 82 -75t102 -26
q44 0 67 21.5t23 50.5q0 57 -123 57q-55 0 -69 -2l43 199q14 -2 106 -2q103 0 103 63q0 29 -31.5 43.5t-79.5 14.5q-104 0 -176 -66l-98 152q120 114 299 114q158 0 251 -58.5t93 -160.5q0 -74 -56.5 -137t-158.5 -70q70 -19 107.5 -64t37.5 -108z" />
    <glyph glyph-name="questiondown" unicode="&#xbf;" horiz-adv-x="722" 
d="M240 457l315 80q18 -59 18 -131q0 -69 -21 -126.5t-52 -93t-68 -66.5t-68 -51t-52 -43.5t-21 -45.5q0 -50 71 -50q78 0 138 54l133 -258q-160 -125 -365 -125q-160 0 -272.5 76t-112.5 204q0 65 20 120.5t52.5 94.5t71.5 72t78.5 61t72 55t52.5 59.5t20 68.5q0 30 -10 45
zM487 1014q78 0 133.5 -56.5t55.5 -134.5q0 -92 -68 -159.5t-159 -67.5q-79 0 -134 56.5t-55 135.5q0 92 67.5 159t159.5 67z" />
    <glyph glyph-name="Agrave" unicode="&#xc0;" horiz-adv-x="1222" 
d="M1137 0h-406v176h-354l-78 -176h-434l702 1366h469zM731 514l-2 453l-201 -453h203zM952 1481h-221l-209 295h291z" />
    <glyph glyph-name="Aacute" unicode="&#xc1;" horiz-adv-x="1222" 
d="M1137 0h-406v176h-354l-78 -176h-434l702 1366h469zM731 514l-2 453l-201 -453h203zM1264 1776l-338 -295h-228l271 295h295z" />
    <glyph glyph-name="Acircumflex" unicode="&#xc2;" horiz-adv-x="1222" 
d="M1135 1481h-191l-80 155l-141 -155h-199l217 295h301zM1137 0h-406v176h-354l-78 -176h-434l702 1366h469zM731 514l-2 453l-201 -453h203z" />
    <glyph glyph-name="Atilde" unicode="&#xc3;" horiz-adv-x="1222" 
d="M1137 0h-406v176h-354l-78 -176h-434l702 1366h469zM731 514l-2 453l-201 -453h203zM958 1477q-44 0 -77.5 15.5t-50 33.5t-39 33.5t-46.5 15.5q-44 0 -61 -86h-174q29 137 88 205.5t162 68.5q44 0 77.5 -15.5t50.5 -33.5t40 -33.5t47 -15.5q41 0 61 86h174
q-30 -137 -90 -205.5t-162 -68.5z" />
    <glyph glyph-name="Adieresis" unicode="&#xc4;" horiz-adv-x="1222" 
d="M1237 1624q0 -75 -61 -133.5t-136 -58.5q-66 0 -109.5 44t-43.5 109q0 76 59.5 134.5t136.5 58.5q65 0 109.5 -44t44.5 -110zM825 1624q0 -75 -59.5 -133.5t-134.5 -58.5q-66 0 -110 44t-44 109q0 76 59.5 134.5t135.5 58.5q66 0 109.5 -44t43.5 -110zM1137 0h-406v176
h-354l-78 -176h-434l702 1366h469zM731 514l-2 453l-201 -453h203z" />
    <glyph glyph-name="Aring" unicode="&#xc5;" horiz-adv-x="1222" 
d="M1137 0h-406v176h-354l-78 -176h-434l702 1366h469zM731 514l-2 453l-201 -453h203zM838 1407q-85 0 -138 53.5t-53 138.5q0 94 70 164t164 70q86 0 138 -53t52 -138q0 -95 -69 -165t-164 -70zM856 1552q28 0 50 22.5t22 51.5q0 28 -17 46t-45 18q-29 0 -50 -22t-21 -52
q0 -28 17 -46t44 -18z" />
    <glyph glyph-name="AE" unicode="&#xc6;" horiz-adv-x="1687" 
d="M1528 0h-862l39 176h-308l-108 -176h-430l944 1366h1026l-76 -338h-473l-37 -168h461l-76 -338h-459l-41 -184h474zM778 514l94 428l-262 -428h168z" />
    <glyph glyph-name="Ccedilla" unicode="&#xc7;" horiz-adv-x="1191" 
d="M492 -408q-76 0 -138.5 23.5t-101.5 62.5l82 117q69 -69 155 -69q33 0 53.5 14.5t20.5 40.5q0 14 -11 24.5t-30 10.5q-26 0 -47 -25l-102 66l84 139q-187 45 -296.5 185.5t-109.5 348.5q0 133 31 259t93 234.5t148 190t203.5 128.5t251.5 47q102 0 186.5 -27t142 -71.5
t100 -105.5t65.5 -123.5t33 -131.5l-367 -94q-9 92 -56.5 151.5t-123.5 59.5q-89 0 -161.5 -79t-110 -194t-37.5 -233q0 -101 52 -162.5t140 -61.5q61 0 120.5 44.5t92.5 115.5l307 -162q-96 -171 -237.5 -255.5t-300.5 -84.5h-25l-47 -73q23 18 53 18q51 0 84 -35.5
t33 -95.5q0 -88 -65.5 -142.5t-163.5 -54.5z" />
    <glyph glyph-name="Egrave" unicode="&#xc8;" 
d="M850 0h-864l303 1366h862l-76 -338h-473l-37 -168h461l-76 -338h-461l-38 -184h473zM868 1481h-221l-209 295h291z" />
    <glyph glyph-name="Eacute" unicode="&#xc9;" 
d="M1184 1776l-338 -295h-228l271 295h295zM850 0h-864l303 1366h862l-76 -338h-473l-37 -168h461l-76 -338h-461l-38 -184h473z" />
    <glyph glyph-name="Ecircumflex" unicode="&#xca;" 
d="M1051 1481h-191l-80 155l-141 -155h-199l217 295h301zM850 0h-864l303 1366h862l-76 -338h-473l-37 -168h461l-76 -338h-461l-38 -184h473z" />
    <glyph glyph-name="Edieresis" unicode="&#xcb;" 
d="M1153 1624q0 -75 -61 -133.5t-136 -58.5q-66 0 -109.5 44t-43.5 109q0 76 59.5 134.5t136.5 58.5q65 0 109.5 -44t44.5 -110zM741 1624q0 -75 -59.5 -133.5t-134.5 -58.5q-66 0 -110 44t-44 109q0 76 59.5 134.5t135.5 58.5q66 0 109.5 -44t43.5 -110zM850 0h-864
l303 1366h862l-76 -338h-473l-37 -168h461l-76 -338h-461l-38 -184h473z" />
    <glyph glyph-name="Igrave" unicode="&#xcc;" horiz-adv-x="583" 
d="M375 0h-389l303 1366h387zM631 1481h-221l-209 295h291z" />
    <glyph glyph-name="Iacute" unicode="&#xcd;" horiz-adv-x="583" 
d="M375 0h-389l303 1366h387zM944 1776l-338 -295h-227l270 295h295z" />
    <glyph glyph-name="Icircumflex" unicode="&#xce;" horiz-adv-x="583" 
d="M813 1481h-190l-80 155l-142 -155h-198l217 295h301zM375 0h-389l303 1366h387z" />
    <glyph glyph-name="Idieresis" unicode="&#xcf;" horiz-adv-x="583" 
d="M918 1624q0 -75 -61 -133.5t-136 -58.5q-66 0 -110 44t-44 109q0 76 60 134.5t137 58.5q65 0 109.5 -44t44.5 -110zM506 1624q0 -75 -60 -133.5t-135 -58.5q-66 0 -109.5 44t-43.5 109q0 76 59.5 134.5t134.5 58.5q66 0 110 -44t44 -110zM375 0h-389l303 1366h387z" />
    <glyph glyph-name="Eth" unicode="&#xd0;" horiz-adv-x="1339" 
d="M553 0h-518l117 530h-127l67 306h127l119 530h506q97 0 188 -37t163.5 -103.5t116.5 -169.5t44 -225q0 -120 -24 -232t-83 -223t-147.5 -192.5t-230 -132.5t-318.5 -51zM729 530h-188l-41 -192h123q80 0 145.5 42t106 111.5t62 152.5t21.5 169q0 99 -51.5 157t-134.5 58
h-121l-43 -192h187z" />
    <glyph glyph-name="Ntilde" unicode="&#xd1;" horiz-adv-x="1312" 
d="M1004 1477q-44 0 -77.5 15.5t-50 33.5t-39 33.5t-46.5 15.5q-45 0 -62 -86h-174q29 137 88 205.5t162 68.5q44 0 77.5 -15.5t50.5 -33.5t40 -33.5t47 -15.5q41 0 61 86h174q-30 -137 -89.5 -205.5t-161.5 -68.5zM1104 0h-367l-221 639l-141 -639h-389l303 1366h393
l205 -598l131 598h387z" />
    <glyph glyph-name="Ograve" unicode="&#xd2;" horiz-adv-x="1318" 
d="M999 1481h-221l-209 295h291zM623 -25q-259 0 -415.5 155t-156.5 400q0 129 30 253t91.5 233.5t147 192.5t204 131.5t254.5 48.5q256 0 413 -155.5t157 -397.5q0 -129 -30 -253.5t-91.5 -234.5t-147 -193t-203.5 -131.5t-253 -48.5zM641 317q88 0 160.5 79t110.5 194
t38 233q0 99 -52.5 161.5t-141.5 62.5q-88 0 -160 -79t-109.5 -194t-37.5 -233q0 -99 51.5 -161.5t140.5 -62.5z" />
    <glyph glyph-name="Oacute" unicode="&#xd3;" horiz-adv-x="1318" 
d="M1311 1776l-338 -295h-228l271 295h295zM623 -25q-259 0 -415.5 155t-156.5 400q0 129 30 253t91.5 233.5t147 192.5t204 131.5t254.5 48.5q256 0 413 -155.5t157 -397.5q0 -129 -30 -253.5t-91.5 -234.5t-147 -193t-203.5 -131.5t-253 -48.5zM641 317q88 0 160.5 79
t110.5 194t38 233q0 99 -52.5 161.5t-141.5 62.5q-88 0 -160 -79t-109.5 -194t-37.5 -233q0 -99 51.5 -161.5t140.5 -62.5z" />
    <glyph glyph-name="Ocircumflex" unicode="&#xd4;" horiz-adv-x="1318" 
d="M1184 1481h-191l-80 155l-141 -155h-199l218 295h301zM623 -25q-259 0 -415.5 155t-156.5 400q0 129 30 253t91.5 233.5t147 192.5t204 131.5t254.5 48.5q256 0 413 -155.5t157 -397.5q0 -129 -30 -253.5t-91.5 -234.5t-147 -193t-203.5 -131.5t-253 -48.5zM641 317
q88 0 160.5 79t110.5 194t38 233q0 99 -52.5 161.5t-141.5 62.5q-88 0 -160 -79t-109.5 -194t-37.5 -233q0 -99 51.5 -161.5t140.5 -62.5z" />
    <glyph glyph-name="Otilde" unicode="&#xd5;" horiz-adv-x="1318" 
d="M623 -25q-259 0 -415.5 155t-156.5 400q0 129 30 253t91.5 233.5t147 192.5t204 131.5t254.5 48.5q256 0 413 -155.5t157 -397.5q0 -129 -30 -253.5t-91.5 -234.5t-147 -193t-203.5 -131.5t-253 -48.5zM641 317q88 0 160.5 79t110.5 194t38 233q0 99 -52.5 161.5
t-141.5 62.5q-88 0 -160 -79t-109.5 -194t-37.5 -233q0 -99 51.5 -161.5t140.5 -62.5zM1008 1477q-44 0 -77.5 15.5t-50 33.5t-39 33.5t-46.5 15.5q-45 0 -62 -86h-174q29 137 88 205.5t162 68.5q44 0 77.5 -15.5t50.5 -33.5t40 -33.5t47 -15.5q41 0 61 86h175
q-30 -137 -90 -205.5t-162 -68.5z" />
    <glyph glyph-name="Odieresis" unicode="&#xd6;" horiz-adv-x="1318" 
d="M1284 1624q0 -75 -61 -133.5t-136 -58.5q-66 0 -109.5 44t-43.5 109q0 76 59.5 134.5t136.5 58.5q65 0 109.5 -44t44.5 -110zM872 1624q0 -75 -59.5 -133.5t-134.5 -58.5q-66 0 -110 44t-44 109q0 76 59.5 134.5t135.5 58.5q66 0 109.5 -44t43.5 -110zM623 -25
q-259 0 -415.5 155t-156.5 400q0 129 30 253t91.5 233.5t147 192.5t204 131.5t254.5 48.5q256 0 413 -155.5t157 -397.5q0 -129 -30 -253.5t-91.5 -234.5t-147 -193t-203.5 -131.5t-253 -48.5zM641 317q88 0 160.5 79t110.5 194t38 233q0 99 -52.5 161.5t-141.5 62.5
q-88 0 -160 -79t-109.5 -194t-37.5 -233q0 -99 51.5 -161.5t140.5 -62.5z" />
    <glyph glyph-name="multiply" unicode="&#xd7;" horiz-adv-x="919" 
d="M657 313l-176 226l-291 -238l-127 156l297 241l-178 226l162 133l174 -228l293 240l125 -158l-291 -239l174 -228z" />
    <glyph glyph-name="Oslash" unicode="&#xd8;" horiz-adv-x="1318" 
d="M623 -25q-220 0 -365 111l-78 -86h-239l196 215q-86 133 -86 315q0 129 30 253t91.5 233.5t147 192.5t204 131.5t254.5 48.5q199 0 346 -101l72 78h240l-187 -203q99 -141 99 -327q0 -129 -30 -253.5t-91.5 -234.5t-147 -193t-203.5 -131.5t-253 -48.5zM641 317
q88 0 160.5 79t110.5 194t38 233v15l-436 -476q51 -45 127 -45zM756 1047q-87 0 -158.5 -77t-109 -189t-39.5 -228l419 457q-50 37 -112 37z" />
    <glyph glyph-name="Ugrave" unicode="&#xd9;" horiz-adv-x="1331" 
d="M627 -25q-250 0 -393.5 123t-143.5 326q0 34 8 84l191 858h391l-193 -870q-6 -36 -6 -47q2 -56 44 -96t116 -40q159 0 199 183l192 870h391l-192 -864q-54 -252 -206.5 -389.5t-397.5 -137.5zM1006 1481h-222l-209 295h291z" />
    <glyph glyph-name="Uacute" unicode="&#xda;" horiz-adv-x="1331" 
d="M1315 1776l-338 -295h-227l270 295h295zM627 -25q-250 0 -393.5 123t-143.5 326q0 34 8 84l191 858h391l-193 -870q-6 -36 -6 -47q2 -56 44 -96t116 -40q159 0 199 183l192 870h391l-192 -864q-54 -252 -206.5 -389.5t-397.5 -137.5z" />
    <glyph glyph-name="Ucircumflex" unicode="&#xdb;" horiz-adv-x="1331" 
d="M1188 1481h-191l-79 155l-142 -155h-198l217 295h301zM627 -25q-250 0 -393.5 123t-143.5 326q0 34 8 84l191 858h391l-193 -870q-6 -36 -6 -47q2 -56 44 -96t116 -40q159 0 199 183l192 870h391l-192 -864q-54 -252 -206.5 -389.5t-397.5 -137.5z" />
    <glyph glyph-name="Udieresis" unicode="&#xdc;" horiz-adv-x="1331" 
d="M1290 1624q0 -75 -60.5 -133.5t-135.5 -58.5q-66 0 -110 44t-44 109q0 76 60 134.5t137 58.5q65 0 109 -44t44 -110zM879 1624q0 -75 -60 -133.5t-135 -58.5q-66 0 -110 44t-44 109q0 76 59.5 134.5t135.5 58.5q66 0 110 -44t44 -110zM627 -25q-250 0 -393.5 123
t-143.5 326q0 34 8 84l191 858h391l-193 -870q-6 -36 -6 -47q2 -56 44 -96t116 -40q159 0 199 183l192 870h391l-192 -864q-54 -252 -206.5 -389.5t-397.5 -137.5z" />
    <glyph glyph-name="Yacute" unicode="&#xdd;" horiz-adv-x="1181" 
d="M676 0h-389l121 547l-242 819h405l91 -467l294 467h441l-602 -819zM1243 1776l-338 -295h-227l270 295h295z" />
    <glyph glyph-name="Thorn" unicode="&#xde;" horiz-adv-x="1185" 
d="M375 0h-389l303 1366h387l-43 -201h184q170 0 280.5 -113.5t110.5 -279.5q0 -76 -19.5 -149.5t-64 -143t-110 -122t-164.5 -84t-219 -31.5h-203zM653 580q66 0 110 43t44 106q0 48 -28 73t-74 25h-148l-53 -247h149z" />
    <glyph glyph-name="germandbls" unicode="&#xdf;" horiz-adv-x="1300" 
d="M1243 346q0 -70 -31 -136.5t-84.5 -118.5t-133 -84t-169.5 -32q-267 0 -411 160l168 219q93 -112 225 -112q30 0 53 15t23 36t-24.5 38.5t-61 30t-79.5 34t-79.5 46.5t-61 70.5t-24.5 103.5q0 65 20.5 117t50.5 83t66 59t66 46.5t50.5 42.5t20.5 50q0 37 -34.5 60.5
t-87.5 23.5q-72 0 -113.5 -42t-61.5 -122l-204 -934h-346l204 934q21 96 63.5 175t108.5 142.5t163 99t218 35.5t225 -40.5t168 -116t64 -170.5q0 -62 -22 -114.5t-54.5 -85t-71 -61.5t-71 -47t-54.5 -37.5t-22 -37.5q0 -16 25.5 -30.5t63.5 -26t83 -33.5t83 -49.5t63.5 -77
t25.5 -113.5z" />
    <glyph glyph-name="agrave" unicode="&#xe0;" horiz-adv-x="1083" 
d="M487 1014q181 0 248 -133l25 108h344l-219 -989h-344l24 106q-106 -131 -241 -131q-143 0 -223.5 96.5t-80.5 278.5q0 84 17.5 173.5t56 177.5t92 157.5t132 112.5t169.5 43zM561 709q-55 0 -99 -50t-64.5 -116.5t-20.5 -128.5q0 -61 34 -97t89 -36q64 0 118 67l66 293
q-40 68 -123 68zM799 1139h-221l-209 295h290z" />
    <glyph glyph-name="aacute" unicode="&#xe1;" horiz-adv-x="1083" 
d="M487 1014q181 0 248 -133l25 108h344l-219 -989h-344l24 106q-106 -131 -241 -131q-143 0 -223.5 96.5t-80.5 278.5q0 84 17.5 173.5t56 177.5t92 157.5t132 112.5t169.5 43zM561 709q-55 0 -99 -50t-64.5 -116.5t-20.5 -128.5q0 -61 34 -97t89 -36q64 0 118 67l66 293
q-40 68 -123 68zM1112 1434l-338 -295h-227l270 295h295z" />
    <glyph glyph-name="acircumflex" unicode="&#xe2;" horiz-adv-x="1083" 
d="M487 1014q181 0 248 -133l25 108h344l-219 -989h-344l24 106q-106 -131 -241 -131q-143 0 -223.5 96.5t-80.5 278.5q0 84 17.5 173.5t56 177.5t92 157.5t132 112.5t169.5 43zM561 709q-55 0 -99 -50t-64.5 -116.5t-20.5 -128.5q0 -61 34 -97t89 -36q64 0 118 67l66 293
q-40 68 -123 68zM979 1139h-191l-79 155l-142 -155h-198l217 295h301z" />
    <glyph glyph-name="atilde" unicode="&#xe3;" horiz-adv-x="1083" 
d="M487 1014q181 0 248 -133l25 108h344l-219 -989h-344l24 106q-106 -131 -241 -131q-143 0 -223.5 96.5t-80.5 278.5q0 84 17.5 173.5t56 177.5t92 157.5t132 112.5t169.5 43zM561 709q-55 0 -99 -50t-64.5 -116.5t-20.5 -128.5q0 -61 34 -97t89 -36q64 0 118 67l66 293
q-40 68 -123 68zM805 1135q-44 0 -77.5 15.5t-50 33.5t-39 33.5t-46.5 15.5q-45 0 -62 -86h-174q29 137 88 205.5t162 68.5q44 0 77.5 -15.5t50.5 -33.5t40 -33.5t47 -15.5q42 0 62 86h174q-30 -137 -90 -205.5t-162 -68.5z" />
    <glyph glyph-name="adieresis" unicode="&#xe4;" horiz-adv-x="1083" 
d="M487 1014q181 0 248 -133l25 108h344l-219 -989h-344l24 106q-106 -131 -241 -131q-143 0 -223.5 96.5t-80.5 278.5q0 84 17.5 173.5t56 177.5t92 157.5t132 112.5t169.5 43zM561 709q-55 0 -99 -50t-64.5 -116.5t-20.5 -128.5q0 -61 34 -97t89 -36q64 0 118 67l66 293
q-40 68 -123 68zM1081 1282q0 -75 -60.5 -133.5t-135.5 -58.5q-66 0 -110 44t-44 109q0 76 60 134.5t137 58.5q65 0 109 -44t44 -110zM670 1282q0 -75 -60 -133.5t-135 -58.5q-66 0 -109.5 44t-43.5 109q0 76 59.5 134.5t134.5 58.5q66 0 110 -44t44 -110z" />
    <glyph glyph-name="aring" unicode="&#xe5;" horiz-adv-x="1083" 
d="M487 1014q181 0 248 -133l25 108h344l-219 -989h-344l24 106q-106 -131 -241 -131q-143 0 -223.5 96.5t-80.5 278.5q0 84 17.5 173.5t56 177.5t92 157.5t132 112.5t169.5 43zM561 709q-55 0 -99 -50t-64.5 -116.5t-20.5 -128.5q0 -61 34 -97t89 -36q64 0 118 67l66 293
q-40 68 -123 68zM682 1057q-85 0 -137.5 53.5t-52.5 138.5q0 94 69.5 164t163.5 70q86 0 138 -53t52 -138q0 -95 -69 -165t-164 -70zM700 1202q28 0 50 22.5t22 51.5q0 28 -16.5 45.5t-44.5 17.5q-29 0 -50.5 -22t-21.5 -51q0 -28 17 -46t44 -18z" />
    <glyph glyph-name="ae" unicode="&#xe6;" horiz-adv-x="1626" 
d="M561 709q-55 0 -99 -50t-64.5 -116.5t-20.5 -128.5q0 -61 34 -97t89 -36q64 0 118 67l66 293q-40 68 -123 68zM911 117l-26 -117h-344l24 106q-106 -131 -241 -131q-143 0 -223.5 96.5t-80.5 278.5q0 84 17.5 173.5t56 177.5t92 157.5t132 112.5t169.5 43q181 0 248 -133
l25 108h344l-17 -76q108 104 226 101q291 -3 291 -381q0 -130 -33 -248h-592q0 -2 -1 -7.5t-1 -8.5q0 -12 11.5 -30t33.5 -37.5t63 -33.5t91 -14q103 0 178 55l104 -235q-62 -49 -136.5 -74t-141.5 -25q-198 0 -269 142zM1022 612h274q0 4 1 13.5t1 13.5q0 40 -32.5 73
t-89.5 33q-64 0 -103.5 -42t-50.5 -91z" />
    <glyph glyph-name="ccedilla" unicode="&#xe7;" horiz-adv-x="894" 
d="M371 -408q-76 0 -138.5 23.5t-101.5 62.5l82 117q69 -69 156 -69q33 0 53 14.5t20 40.5q0 14 -11 24.5t-30 10.5q-26 0 -47 -25l-102 66l82 137q-146 35 -227.5 143.5t-81.5 268.5q0 121 41.5 232t113 194t175.5 132.5t223 49.5q124 0 218.5 -43t145.5 -111l-209 -225
q-48 74 -141 74q-92 0 -153.5 -80t-61.5 -191q0 -73 46.5 -115t117.5 -42q79 0 139 63l117 -250q-52 -50 -135 -84.5t-183 -34.5h-2l-47 -73q23 18 53 18q51 0 84 -35.5t33 -95.5q0 -88 -65.5 -142.5t-163.5 -54.5z" />
    <glyph glyph-name="egrave" unicode="&#xe8;" horiz-adv-x="1001" 
d="M492 -25q-216 0 -341.5 113.5t-125.5 314.5q0 113 39 222.5t108 196t173 139.5t224 53q189 0 299.5 -110t110.5 -300q0 -101 -33 -219h-592v-16q0 -12 9.5 -31t29.5 -40.5t58.5 -36.5t87.5 -15q113 0 188 55l107 -219q-67 -51 -159.5 -79t-182.5 -28zM395 612h275
q2 8 2 27q0 40 -32.5 73t-90.5 33q-63 0 -104 -42.5t-50 -90.5zM799 1139h-221l-209 295h290z" />
    <glyph glyph-name="eacute" unicode="&#xe9;" horiz-adv-x="1001" 
d="M1110 1434l-338 -295h-227l270 295h295zM492 -25q-216 0 -341.5 113.5t-125.5 314.5q0 113 39 222.5t108 196t173 139.5t224 53q189 0 299.5 -110t110.5 -300q0 -101 -33 -219h-592v-16q0 -12 9.5 -31t29.5 -40.5t58.5 -36.5t87.5 -15q113 0 188 55l107 -219
q-67 -51 -159.5 -79t-182.5 -28zM395 612h275q2 8 2 27q0 40 -32.5 73t-90.5 33q-63 0 -104 -42.5t-50 -90.5z" />
    <glyph glyph-name="ecircumflex" unicode="&#xea;" horiz-adv-x="1001" 
d="M977 1139h-191l-79 155l-142 -155h-198l217 295h301zM492 -25q-216 0 -341.5 113.5t-125.5 314.5q0 113 39 222.5t108 196t173 139.5t224 53q189 0 299.5 -110t110.5 -300q0 -101 -33 -219h-592v-16q0 -12 9.5 -31t29.5 -40.5t58.5 -36.5t87.5 -15q113 0 188 55l107 -219
q-67 -51 -159.5 -79t-182.5 -28zM395 612h275q2 8 2 27q0 40 -32.5 73t-90.5 33q-63 0 -104 -42.5t-50 -90.5z" />
    <glyph glyph-name="edieresis" unicode="&#xeb;" horiz-adv-x="1001" 
d="M1081 1282q0 -75 -60.5 -133.5t-135.5 -58.5q-66 0 -110 44t-44 109q0 76 60 134.5t137 58.5q65 0 109 -44t44 -110zM670 1282q0 -75 -60 -133.5t-135 -58.5q-66 0 -109.5 44t-43.5 109q0 76 59.5 134.5t134.5 58.5q66 0 110 -44t44 -110zM492 -25q-216 0 -341.5 113.5
t-125.5 314.5q0 113 39 222.5t108 196t173 139.5t224 53q189 0 299.5 -110t110.5 -300q0 -101 -33 -219h-592v-16q0 -12 9.5 -31t29.5 -40.5t58.5 -36.5t87.5 -15q113 0 188 55l107 -219q-67 -51 -159.5 -79t-182.5 -28zM395 612h275q2 8 2 27q0 40 -32.5 73t-90.5 33
q-63 0 -104 -42.5t-50 -90.5z" />
    <glyph glyph-name="igrave" unicode="&#xec;" horiz-adv-x="520" 
d="M324 0h-349l222 989h346zM526 1139h-221l-209 295h291z" />
    <glyph glyph-name="iacute" unicode="&#xed;" horiz-adv-x="520" 
d="M838 1434l-338 -295h-228l271 295h295zM324 0h-349l222 989h346z" />
    <glyph glyph-name="icircumflex" unicode="&#xee;" horiz-adv-x="520" 
d="M707 1139h-191l-80 155l-141 -155h-199l217 295h301zM324 0h-349l222 989h346z" />
    <glyph glyph-name="idieresis" unicode="&#xef;" horiz-adv-x="520" 
d="M811 1282q0 -75 -61 -133.5t-136 -58.5q-66 0 -109.5 44t-43.5 109q0 76 59.5 134.5t136.5 58.5q65 0 109.5 -44t44.5 -110zM399 1282q0 -75 -59.5 -133.5t-134.5 -58.5q-66 0 -110 44t-44 109q0 76 59.5 134.5t135.5 58.5q66 0 109.5 -44t43.5 -110zM324 0h-349l222 989
h346z" />
    <glyph glyph-name="eth" unicode="&#xf0;" horiz-adv-x="1052" 
d="M344 965l-35 153l236 68q-41 64 -84 114l282 181q85 -92 154 -193l164 49l33 -149l-119 -37q84 -181 84 -381q0 -115 -21 -226.5t-67 -215t-112 -181.5t-162.5 -125t-211.5 -47q-219 0 -343 112t-124 298q0 77 20.5 153.5t60 144t93 119t124.5 81.5t149 30
q208 0 268 -202q-5 135 -106 338zM494 281q73 0 119 65t46 146q0 49 -33.5 82.5t-97.5 33.5q-48 0 -86 -35.5t-55.5 -83.5t-17.5 -94q0 -114 125 -114z" />
    <glyph glyph-name="ntilde" unicode="&#xf1;" horiz-adv-x="1095" 
d="M897 0h-346l129 584q8 48 8 53q0 35 -23.5 53.5t-58.5 18.5q-76 0 -145 -86l-137 -623h-349l222 989h346l-29 -115q130 140 287 140q123 0 193.5 -61.5t70.5 -159.5q0 -38 -8 -66zM821 1135q-44 0 -77.5 15.5t-50 33.5t-39 33.5t-46.5 15.5q-44 0 -61 -86h-174
q29 137 88 205.5t162 68.5q44 0 77.5 -15.5t50.5 -33.5t40 -33.5t47 -15.5q41 0 61 86h174q-30 -137 -90 -205.5t-162 -68.5z" />
    <glyph glyph-name="ograve" unicode="&#xf2;" horiz-adv-x="1052" 
d="M479 -25q-220 0 -337 119.5t-117 313.5q0 111 39 219t107.5 194.5t172.5 139.5t225 53q221 0 339 -119t118 -313q0 -89 -24 -176.5t-72 -165t-113 -137t-152.5 -94t-185.5 -34.5zM496 281q54 0 97.5 53.5t63 119.5t19.5 124q0 131 -123 131q-53 0 -96 -53t-62.5 -119.5
t-19.5 -122.5q0 -66 31.5 -99.5t89.5 -33.5zM795 1139h-222l-208 295h290z" />
    <glyph glyph-name="oacute" unicode="&#xf3;" horiz-adv-x="1052" 
d="M1104 1434l-338 -295h-227l270 295h295zM479 -25q-220 0 -337 119.5t-117 313.5q0 111 39 219t107.5 194.5t172.5 139.5t225 53q221 0 339 -119t118 -313q0 -89 -24 -176.5t-72 -165t-113 -137t-152.5 -94t-185.5 -34.5zM496 281q54 0 97.5 53.5t63 119.5t19.5 124
q0 131 -123 131q-53 0 -96 -53t-62.5 -119.5t-19.5 -122.5q0 -66 31.5 -99.5t89.5 -33.5z" />
    <glyph glyph-name="ocircumflex" unicode="&#xf4;" horiz-adv-x="1052" 
d="M975 1139h-191l-79 155l-142 -155h-198l217 295h301zM479 -25q-220 0 -337 119.5t-117 313.5q0 111 39 219t107.5 194.5t172.5 139.5t225 53q221 0 339 -119t118 -313q0 -89 -24 -176.5t-72 -165t-113 -137t-152.5 -94t-185.5 -34.5zM496 281q54 0 97.5 53.5t63 119.5
t19.5 124q0 131 -123 131q-53 0 -96 -53t-62.5 -119.5t-19.5 -122.5q0 -66 31.5 -99.5t89.5 -33.5z" />
    <glyph glyph-name="otilde" unicode="&#xf5;" horiz-adv-x="1052" 
d="M479 -25q-220 0 -337 119.5t-117 313.5q0 111 39 219t107.5 194.5t172.5 139.5t225 53q221 0 339 -119t118 -313q0 -89 -24 -176.5t-72 -165t-113 -137t-152.5 -94t-185.5 -34.5zM496 281q54 0 97.5 53.5t63 119.5t19.5 124q0 131 -123 131q-53 0 -96 -53t-62.5 -119.5
t-19.5 -122.5q0 -66 31.5 -99.5t89.5 -33.5zM799 1135q-44 0 -77.5 15.5t-50 33.5t-39 33.5t-46.5 15.5q-45 0 -62 -86h-174q29 137 88 205.5t162 68.5q44 0 77.5 -15.5t50.5 -33.5t40 -33.5t47 -15.5q42 0 62 86h174q-30 -137 -90 -205.5t-162 -68.5z" />
    <glyph glyph-name="odieresis" unicode="&#xf6;" horiz-adv-x="1052" 
d="M1077 1282q0 -75 -60.5 -133.5t-135.5 -58.5q-66 0 -110 44t-44 109q0 76 60 134.5t137 58.5q65 0 109 -44t44 -110zM666 1282q0 -75 -60 -133.5t-135 -58.5q-66 0 -110 44t-44 109q0 76 59.5 134.5t135.5 58.5q66 0 110 -44t44 -110zM479 -25q-220 0 -337 119.5
t-117 313.5q0 111 39 219t107.5 194.5t172.5 139.5t225 53q221 0 339 -119t118 -313q0 -89 -24 -176.5t-72 -165t-113 -137t-152.5 -94t-185.5 -34.5zM496 281q54 0 97.5 53.5t63 119.5t19.5 124q0 131 -123 131q-53 0 -96 -53t-62.5 -119.5t-19.5 -122.5q0 -66 31.5 -99.5
t89.5 -33.5z" />
    <glyph glyph-name="divide" unicode="&#xf7;" horiz-adv-x="907" 
d="M866 590h-786l45 203h786zM410 219q-57 0 -96.5 40t-39.5 97q0 66 48 114t114 48q56 0 95.5 -40.5t39.5 -96.5q0 -66 -48 -114t-113 -48zM553 864q-57 0 -97 39.5t-40 95.5q0 66 49 114t115 48q56 0 95.5 -40t39.5 -97q0 -65 -48.5 -112.5t-113.5 -47.5z" />
    <glyph glyph-name="oslash" unicode="&#xf8;" horiz-adv-x="1052" 
d="M123 0h-201l166 162q-63 103 -63 246q0 111 39 219t107.5 194.5t172.5 139.5t225 53q180 0 297 -84l62 59h200l-165 -164q63 -104 63 -243q0 -89 -24 -176.5t-72 -165t-113 -137t-152.5 -94t-185.5 -34.5q-180 0 -297 84zM553 709q-49 0 -89 -45t-61 -103t-26 -115
l248 244q-29 19 -72 19zM496 281q71 0 119 82t59 178l-248 -244q29 -16 70 -16z" />
    <glyph glyph-name="ugrave" unicode="&#xf9;" horiz-adv-x="1093" 
d="M195 989h346l-131 -592q-7 -31 -7 -47q0 -32 24.5 -50.5t61.5 -18.5q74 0 142 86l139 622h346l-219 -989h-346l27 115q-130 -140 -285 -140q-123 0 -194.5 62t-71.5 160q0 3 8 67zM813 1139h-221l-209 295h291z" />
    <glyph glyph-name="uacute" unicode="&#xfa;" horiz-adv-x="1093" 
d="M1124 1434l-338 -295h-227l270 295h295zM195 989h346l-131 -592q-7 -31 -7 -47q0 -32 24.5 -50.5t61.5 -18.5q74 0 142 86l139 622h346l-219 -989h-346l27 115q-130 -140 -285 -140q-123 0 -194.5 62t-71.5 160q0 3 8 67z" />
    <glyph glyph-name="ucircumflex" unicode="&#xfb;" horiz-adv-x="1093" 
d="M991 1139h-190l-80 155l-141 -155h-199l217 295h301zM195 989h346l-131 -592q-7 -31 -7 -47q0 -32 24.5 -50.5t61.5 -18.5q74 0 142 86l139 622h346l-219 -989h-346l27 115q-130 -140 -285 -140q-123 0 -194.5 62t-71.5 160q0 3 8 67z" />
    <glyph glyph-name="udieresis" unicode="&#xfc;" horiz-adv-x="1093" 
d="M1096 1282q0 -75 -61 -133.5t-136 -58.5q-66 0 -110 44t-44 109q0 76 60 134.5t137 58.5q65 0 109.5 -44t44.5 -110zM684 1282q0 -75 -60 -133.5t-135 -58.5q-66 0 -109.5 44t-43.5 109q0 76 59.5 134.5t134.5 58.5q66 0 110 -44t44 -110zM195 989h346l-131 -592
q-7 -31 -7 -47q0 -32 24.5 -50.5t61.5 -18.5q74 0 142 86l139 622h346l-219 -989h-346l27 115q-130 -140 -285 -140q-123 0 -194.5 62t-71.5 160q0 3 8 67z" />
    <glyph glyph-name="yacute" unicode="&#xfd;" horiz-adv-x="993" 
d="M-98 -373l110 289q24 -12 76 -12q59 0 86 43l29 47l-115 995h354l25 -573l283 573h374l-626 -1116q-88 -157 -178.5 -215.5t-225.5 -58.5q-122 0 -192 28zM1063 1434l-338 -295h-227l270 295h295z" />
    <glyph glyph-name="thorn" unicode="&#xfe;" horiz-adv-x="1081" 
d="M596 -25q-182 0 -250 134l-106 -486h-346l385 1743h346l-109 -483q106 131 242 131q143 0 223 -96t80 -279q0 -84 -17.5 -173.5t-56 -177.5t-91.5 -157.5t-131 -112.5t-169 -43zM520 281q55 0 99 50t65 116t21 128q0 61 -34 97.5t-89 36.5q-66 0 -117 -68l-66 -291
q38 -69 121 -69z" />
    <glyph glyph-name="ydieresis" unicode="&#xff;" horiz-adv-x="993" 
d="M-98 -373l110 289q24 -12 76 -12q59 0 86 43l29 47l-115 995h354l25 -573l283 573h374l-626 -1116q-88 -157 -178.5 -215.5t-225.5 -58.5q-122 0 -192 28zM1036 1282q0 -75 -60.5 -133.5t-135.5 -58.5q-66 0 -110 44t-44 109q0 76 60 134.5t137 58.5q65 0 109 -44
t44 -110zM625 1282q0 -75 -60 -133.5t-135 -58.5q-66 0 -110 44t-44 109q0 76 59.5 134.5t135.5 58.5q66 0 110 -44t44 -110z" />
    <glyph glyph-name="Amacron" unicode="&#x100;" horiz-adv-x="1222" 
d="M1137 0h-406v176h-354l-78 -176h-434l702 1366h469zM731 514l-2 453l-201 -453h203zM1155 1475h-645l41 188h645z" />
    <glyph glyph-name="amacron" unicode="&#x101;" horiz-adv-x="1083" 
d="M487 1014q181 0 248 -133l25 108h344l-219 -989h-344l24 106q-106 -131 -241 -131q-143 0 -223.5 96.5t-80.5 278.5q0 84 17.5 173.5t56 177.5t92 157.5t132 112.5t169.5 43zM561 709q-55 0 -99 -50t-64.5 -116.5t-20.5 -128.5q0 -61 34 -97t89 -36q64 0 118 67l66 293
q-40 68 -123 68zM995 1133h-645l41 188h645z" />
    <glyph glyph-name="Abreve" unicode="&#x102;" horiz-adv-x="1222" 
d="M1137 0h-406v176h-354l-78 -176h-434l702 1366h469zM731 514l-2 453l-201 -453h203zM1159 1587q-70 -74 -160 -115.5t-184 -41.5t-166.5 41.5t-111.5 115.5l168 117q42 -86 143 -86q102 0 182 86z" />
    <glyph glyph-name="abreve" unicode="&#x103;" horiz-adv-x="1083" 
d="M487 1014q181 0 248 -133l25 108h344l-219 -989h-344l24 106q-106 -131 -241 -131q-143 0 -223.5 96.5t-80.5 278.5q0 84 17.5 173.5t56 177.5t92 157.5t132 112.5t169.5 43zM561 709q-55 0 -99 -50t-64.5 -116.5t-20.5 -128.5q0 -61 34 -97t89 -36q64 0 118 67l66 293
q-40 68 -123 68zM1006 1245q-70 -74 -160 -116t-184 -42t-167 42t-112 116l168 117q42 -86 143 -86q103 0 183 86z" />
    <glyph glyph-name="Aogonek" unicode="&#x104;" horiz-adv-x="1222" 
d="M1085 -199l109 -88q-76 -94 -184 -94q-83 0 -139 40t-56 116q0 122 111 225h-195v176h-354l-78 -176h-434l702 1366h469l101 -1366q-76 -41 -119 -95t-43 -110q0 -43 45 -43q38 0 65 49zM731 514l-2 453l-201 -453h203z" />
    <glyph glyph-name="aogonek" unicode="&#x105;" horiz-adv-x="1083" 
d="M834 -199l108 -88q-76 -94 -184 -94q-83 0 -139 40t-56 116q0 122 111 225h-133l24 106q-106 -131 -241 -131q-143 0 -223.5 96.5t-80.5 278.5q0 84 17.5 173.5t56 177.5t92 157.5t132 112.5t169.5 43q181 0 248 -133l25 108h344l-219 -989q-76 -41 -119 -95t-43 -110
q0 -43 45 -43q39 0 66 49zM561 709q-55 0 -99 -50t-64.5 -116.5t-20.5 -128.5q0 -61 34 -97t89 -36q64 0 118 67l66 293q-40 68 -123 68z" />
    <glyph glyph-name="Cacute" unicode="&#x106;" horiz-adv-x="1191" 
d="M1319 1786l-338 -295h-227l270 295h295zM623 -25q-255 0 -413.5 151.5t-158.5 403.5q0 133 31 259t93 234.5t148 190t203.5 128.5t251.5 47q102 0 186.5 -27t142 -71.5t100 -105.5t65.5 -123.5t33 -131.5l-367 -94q-9 92 -56.5 151.5t-123.5 59.5q-89 0 -161.5 -79
t-110 -194t-37.5 -233q0 -101 52 -162.5t140 -61.5q61 0 120.5 44.5t92.5 115.5l307 -162q-96 -171 -237.5 -255.5t-300.5 -84.5z" />
    <glyph glyph-name="cacute" unicode="&#x107;" horiz-adv-x="894" 
d="M1120 1434l-338 -295h-227l270 295h295zM479 -25q-209 0 -331.5 117.5t-122.5 313.5q0 121 41.5 232t113 194t175.5 132.5t223 49.5q124 0 218.5 -43t145.5 -111l-209 -225q-48 74 -141 74q-92 0 -153.5 -80t-61.5 -191q0 -73 46.5 -115t117.5 -42q79 0 139 63l117 -250
q-52 -50 -135 -84.5t-183 -34.5z" />
    <glyph glyph-name="Ccircumflex" unicode="&#x108;" horiz-adv-x="1191" 
d="M1184 1481h-191l-80 155l-141 -155h-199l218 295h301zM623 -25q-255 0 -413.5 151.5t-158.5 403.5q0 133 31 259t93 234.5t148 190t203.5 128.5t251.5 47q102 0 186.5 -27t142 -71.5t100 -105.5t65.5 -123.5t33 -131.5l-367 -94q-9 92 -56.5 151.5t-123.5 59.5
q-89 0 -161.5 -79t-110 -194t-37.5 -233q0 -101 52 -162.5t140 -61.5q61 0 120.5 44.5t92.5 115.5l307 -162q-96 -171 -237.5 -255.5t-300.5 -84.5z" />
    <glyph glyph-name="ccircumflex" unicode="&#x109;" horiz-adv-x="894" 
d="M991 1139h-190l-80 155l-141 -155h-199l217 295h301zM479 -25q-209 0 -331.5 117.5t-122.5 313.5q0 121 41.5 232t113 194t175.5 132.5t223 49.5q124 0 218.5 -43t145.5 -111l-209 -225q-48 74 -141 74q-92 0 -153.5 -80t-61.5 -191q0 -73 46.5 -115t117.5 -42
q79 0 139 63l117 -250q-52 -50 -135 -84.5t-183 -34.5z" />
    <glyph glyph-name="Cdotaccent" unicode="&#x10a;" horiz-adv-x="1191" 
d="M623 -25q-255 0 -413.5 151.5t-158.5 403.5q0 133 31 259t93 234.5t148 190t203.5 128.5t251.5 47q102 0 186.5 -27t142 -71.5t100 -105.5t65.5 -123.5t33 -131.5l-367 -94q-9 92 -56.5 151.5t-123.5 59.5q-89 0 -161.5 -79t-110 -194t-37.5 -233q0 -101 52 -162.5
t140 -61.5q61 0 120.5 44.5t92.5 115.5l307 -162q-96 -171 -237.5 -255.5t-300.5 -84.5zM1085 1626q0 -75 -60.5 -133.5t-135.5 -58.5q-66 0 -110 44t-44 109q0 76 60 134.5t137 58.5q65 0 109 -44t44 -110z" />
    <glyph glyph-name="cdotaccent" unicode="&#x10b;" horiz-adv-x="894" 
d="M479 -25q-209 0 -331.5 117.5t-122.5 313.5q0 121 41.5 232t113 194t175.5 132.5t223 49.5q124 0 218.5 -43t145.5 -111l-209 -225q-48 74 -141 74q-92 0 -153.5 -80t-61.5 -191q0 -73 46.5 -115t117.5 -42q79 0 139 63l117 -250q-52 -50 -135 -84.5t-183 -34.5z
M891 1284q0 -75 -61 -133.5t-136 -58.5q-66 0 -109.5 44t-43.5 109q0 76 59.5 134.5t136.5 58.5q65 0 109.5 -44t44.5 -110z" />
    <glyph glyph-name="Ccaron" unicode="&#x10c;" horiz-adv-x="1191" 
d="M1032 1481h-301l-92 295h190l80 -156l142 156h198zM623 -25q-255 0 -413.5 151.5t-158.5 403.5q0 133 31 259t93 234.5t148 190t203.5 128.5t251.5 47q102 0 186.5 -27t142 -71.5t100 -105.5t65.5 -123.5t33 -131.5l-367 -94q-9 92 -56.5 151.5t-123.5 59.5
q-89 0 -161.5 -79t-110 -194t-37.5 -233q0 -101 52 -162.5t140 -61.5q61 0 120.5 44.5t92.5 115.5l307 -162q-96 -171 -237.5 -255.5t-300.5 -84.5z" />
    <glyph glyph-name="ccaron" unicode="&#x10d;" horiz-adv-x="894" 
d="M840 1139h-301l-93 295h191l80 -156l141 156h199zM479 -25q-209 0 -331.5 117.5t-122.5 313.5q0 121 41.5 232t113 194t175.5 132.5t223 49.5q124 0 218.5 -43t145.5 -111l-209 -225q-48 74 -141 74q-92 0 -153.5 -80t-61.5 -191q0 -73 46.5 -115t117.5 -42q79 0 139 63
l117 -250q-52 -50 -135 -84.5t-183 -34.5z" />
    <glyph glyph-name="Dcaron" unicode="&#x10e;" horiz-adv-x="1290" 
d="M1030 1481h-301l-92 295h190l80 -156l142 156h198zM504 0h-518l303 1366h506q97 0 188 -37t163.5 -103.5t116.5 -169.5t44 -225q0 -120 -24 -232t-83 -223t-147.5 -192.5t-230 -132.5t-318.5 -51zM451 338h122q65 0 120.5 28t94.5 74.5t66.5 108t41 128.5t13.5 136
q0 99 -51.5 157t-134.5 58h-121z" />
    <glyph glyph-name="dcaron" unicode="&#x10f;" horiz-adv-x="1374" 
d="M1544 1237q0 -101 -75 -201.5t-191 -156.5l-88 90q131 62 170 133q-4 -2 -21 -2q-49 0 -83.5 32.5t-34.5 92.5q0 66 54 117t120 51q62 0 105.5 -41.5t43.5 -114.5zM487 1014q181 0 248 -133l109 485h344l-303 -1366h-344l24 106q-106 -131 -241 -131q-143 0 -223.5 96.5
t-80.5 278.5q0 84 17.5 173.5t56 177.5t92 157.5t132 112.5t169.5 43zM561 709q-55 0 -99 -50t-64.5 -116.5t-20.5 -128.5q0 -61 34 -97t89 -36q64 0 118 67l66 293q-40 68 -123 68z" />
    <glyph glyph-name="Dcroat" unicode="&#x110;" horiz-adv-x="1339" 
d="M553 0h-518l117 530h-127l67 306h127l119 530h506q97 0 188 -37t163.5 -103.5t116.5 -169.5t44 -225q0 -120 -24 -232t-83 -223t-147.5 -192.5t-230 -132.5t-318.5 -51zM729 530h-188l-41 -192h123q80 0 145.5 42t106 111.5t62 152.5t21.5 169q0 99 -51.5 157t-134.5 58
h-121l-43 -192h187z" />
    <glyph glyph-name="dcroat" unicode="&#x111;" horiz-adv-x="1097" 
d="M487 1014q181 0 248 -133l43 190h-248l45 189h244l25 106h344l-25 -106h105l-45 -189h-101l-237 -1071h-344l24 106q-106 -131 -241 -131q-143 0 -223.5 96.5t-80.5 278.5q0 84 17.5 173.5t56 177.5t92 157.5t132 112.5t169.5 43zM561 709q-55 0 -99 -50t-64.5 -116.5
t-20.5 -128.5q0 -61 34 -97t89 -36q64 0 118 67l66 293q-40 68 -123 68z" />
    <glyph glyph-name="Emacron" unicode="&#x112;" 
d="M850 0h-864l303 1366h862l-76 -338h-473l-37 -168h461l-76 -338h-461l-38 -184h473zM1067 1475h-645l41 188h645z" />
    <glyph glyph-name="emacron" unicode="&#x113;" horiz-adv-x="1001" 
d="M492 -25q-216 0 -341.5 113.5t-125.5 314.5q0 113 39 222.5t108 196t173 139.5t224 53q189 0 299.5 -110t110.5 -300q0 -101 -33 -219h-592v-16q0 -12 9.5 -31t29.5 -40.5t58.5 -36.5t87.5 -15q113 0 188 55l107 -219q-67 -51 -159.5 -79t-182.5 -28zM395 612h275
q2 8 2 27q0 40 -32.5 73t-90.5 33q-63 0 -104 -42.5t-50 -90.5zM995 1133h-645l41 188h645z" />
    <glyph glyph-name="Ebreve" unicode="&#x114;" 
d="M850 0h-864l303 1366h862l-76 -338h-473l-37 -168h461l-76 -338h-461l-38 -184h473zM1077 1587q-70 -74 -160 -115.5t-184 -41.5t-166.5 41.5t-111.5 115.5l168 117q42 -86 143 -86q102 0 182 86z" />
    <glyph glyph-name="ebreve" unicode="&#x115;" horiz-adv-x="1001" 
d="M492 -25q-216 0 -341.5 113.5t-125.5 314.5q0 113 39 222.5t108 196t173 139.5t224 53q189 0 299.5 -110t110.5 -300q0 -101 -33 -219h-592v-16q0 -12 9.5 -31t29.5 -40.5t58.5 -36.5t87.5 -15q113 0 188 55l107 -219q-67 -51 -159.5 -79t-182.5 -28zM395 612h275
q2 8 2 27q0 40 -32.5 73t-90.5 33q-63 0 -104 -42.5t-50 -90.5zM1006 1245q-70 -74 -160 -116t-184 -42t-167 42t-112 116l168 117q42 -86 143 -86q103 0 183 86z" />
    <glyph glyph-name="Edotaccent" unicode="&#x116;" 
d="M850 0h-864l303 1366h862l-76 -338h-473l-37 -168h461l-76 -338h-461l-38 -184h473zM952 1642q0 -75 -60.5 -133.5t-135.5 -58.5q-66 0 -110 44.5t-44 109.5q0 76 60 134t137 58q65 0 109 -44t44 -110z" />
    <glyph glyph-name="edotaccent" unicode="&#x117;" horiz-adv-x="1001" 
d="M492 -25q-216 0 -341.5 113.5t-125.5 314.5q0 113 39 222.5t108 196t173 139.5t224 53q189 0 299.5 -110t110.5 -300q0 -101 -33 -219h-592v-16q0 -12 9.5 -31t29.5 -40.5t58.5 -36.5t87.5 -15q113 0 188 55l107 -219q-67 -51 -159.5 -79t-182.5 -28zM395 612h275
q2 8 2 27q0 40 -32.5 73t-90.5 33q-63 0 -104 -42.5t-50 -90.5zM879 1284q0 -75 -61 -133.5t-136 -58.5q-66 0 -110 44t-44 109q0 76 60 134.5t137 58.5q65 0 109.5 -44t44.5 -110z" />
    <glyph glyph-name="Eogonek" unicode="&#x118;" 
d="M850 0q-76 -41 -119 -95t-43 -110q0 -43 45 -43q39 0 66 49l108 -88q-76 -94 -184 -94q-83 0 -139 40t-56 116q0 122 111 225h-653l303 1366h862l-76 -338h-473l-37 -168h461l-76 -338h-461l-38 -184h473z" />
    <glyph glyph-name="eogonek" unicode="&#x119;" horiz-adv-x="1001" 
d="M614 -199l109 -88q-76 -94 -184 -94q-83 0 -139 40t-56 116q0 110 90 205q-191 15 -300 125.5t-109 297.5q0 113 39 222.5t108 196t173 139.5t224 53q189 0 299.5 -110t110.5 -300q0 -101 -33 -219h-592v-16q0 -12 9.5 -31t29.5 -40.5t58.5 -36.5t87.5 -15q113 0 188 55
l107 -219q-69 -52 -170 -82h2q-76 -41 -119 -95t-43 -110q0 -43 45 -43q38 0 65 49zM395 612h275q2 8 2 27q0 40 -32.5 73t-90.5 33q-63 0 -104 -42.5t-50 -90.5z" />
    <glyph glyph-name="Ecaron" unicode="&#x11a;" 
d="M901 1481h-301l-92 295h190l80 -156l142 156h198zM850 0h-864l303 1366h862l-76 -338h-473l-37 -168h461l-76 -338h-461l-38 -184h473z" />
    <glyph glyph-name="ecaron" unicode="&#x11b;" horiz-adv-x="1001" 
d="M825 1139h-301l-92 295h191l79 -156l142 156h198zM492 -25q-216 0 -341.5 113.5t-125.5 314.5q0 113 39 222.5t108 196t173 139.5t224 53q189 0 299.5 -110t110.5 -300q0 -101 -33 -219h-592v-16q0 -12 9.5 -31t29.5 -40.5t58.5 -36.5t87.5 -15q113 0 188 55l107 -219
q-67 -51 -159.5 -79t-182.5 -28zM395 612h275q2 8 2 27q0 40 -32.5 73t-90.5 33q-63 0 -104 -42.5t-50 -90.5z" />
    <glyph glyph-name="Gcircumflex" unicode="&#x11c;" horiz-adv-x="1251" 
d="M1196 1481h-190l-80 155l-142 -155h-198l217 295h301zM623 -25q-253 0 -412.5 151.5t-159.5 403.5q0 170 50.5 324t143 273.5t236.5 190.5t318 71q108 0 196 -33t145.5 -90.5t92.5 -126.5t49 -148l-342 -114q-8 68 -58 119t-122 51q-86 0 -158.5 -75t-112.5 -191
t-40 -240q0 -99 50.5 -161.5t143.5 -62.5q79 0 150 64l18 82h-190l77 338h551l-125 -561q-90 -129 -220 -197t-281 -68z" />
    <glyph glyph-name="gcircumflex" unicode="&#x11d;" horiz-adv-x="1081" 
d="M971 1118h-191l-80 156l-141 -156h-199l218 295h301zM360 -401q-290 0 -442 155l182 240q40 -51 110 -80t142 -29q75 0 127 45.5t78 157.5l18 74q-98 -133 -241 -133q-141 0 -225 88t-84 266q0 83 17 169t54.5 169.5t89.5 148t128.5 104.5t166.5 40q75 0 147 -34t105 -99
l25 108h346l-203 -901q-108 -489 -541 -489zM508 334q67 0 119 69l51 232q-39 74 -129 74q-50 0 -90 -40t-59 -96.5t-19 -115.5q0 -58 34 -90.5t93 -32.5z" />
    <glyph glyph-name="Gbreve" unicode="&#x11e;" horiz-adv-x="1251" 
d="M623 -25q-253 0 -412.5 151.5t-159.5 403.5q0 170 50.5 324t143 273.5t236.5 190.5t318 71q108 0 196 -33t145.5 -90.5t92.5 -126.5t49 -148l-342 -114q-8 68 -58 119t-122 51q-86 0 -158.5 -75t-112.5 -191t-40 -240q0 -99 50.5 -161.5t143.5 -62.5q79 0 150 64l18 82
h-190l77 338h551l-125 -561q-90 -129 -220 -197t-281 -68zM1221 1587q-70 -74 -160 -115.5t-184 -41.5q-95 0 -167.5 41.5t-111.5 115.5l168 117q42 -86 143 -86q103 0 183 86z" />
    <glyph glyph-name="gbreve" unicode="&#x11f;" horiz-adv-x="1081" 
d="M360 -401q-290 0 -442 155l182 240q40 -51 110 -80t142 -29q75 0 127 45.5t78 157.5l18 74q-98 -133 -241 -133q-141 0 -225 88t-84 266q0 83 17 169t54.5 169.5t89.5 148t128.5 104.5t166.5 40q75 0 147 -34t105 -99l25 108h346l-203 -901q-108 -489 -541 -489zM508 334
q67 0 119 69l51 232q-39 74 -129 74q-50 0 -90 -40t-59 -96.5t-19 -115.5q0 -58 34 -90.5t93 -32.5zM1004 1245q-70 -74 -160.5 -116t-184.5 -42t-166.5 42t-111.5 116l168 117q42 -86 143 -86q102 0 182 86z" />
    <glyph glyph-name="Gdotaccent" unicode="&#x120;" horiz-adv-x="1251" 
d="M623 -25q-253 0 -412.5 151.5t-159.5 403.5q0 170 50.5 324t143 273.5t236.5 190.5t318 71q108 0 196 -33t145.5 -90.5t92.5 -126.5t49 -148l-342 -114q-8 68 -58 119t-122 51q-86 0 -158.5 -75t-112.5 -191t-40 -240q0 -99 50.5 -161.5t143.5 -62.5q79 0 150 64l18 82
h-190l77 338h551l-125 -561q-90 -129 -220 -197t-281 -68zM1094 1628q0 -75 -61 -133.5t-136 -58.5q-66 0 -110 44t-44 109q0 76 60 134.5t137 58.5q65 0 109.5 -44t44.5 -110z" />
    <glyph glyph-name="gdotaccent" unicode="&#x121;" horiz-adv-x="1081" 
d="M360 -401q-290 0 -442 155l182 240q40 -51 110 -80t142 -29q75 0 127 45.5t78 157.5l18 74q-98 -133 -241 -133q-141 0 -225 88t-84 266q0 83 17 169t54.5 169.5t89.5 148t128.5 104.5t166.5 40q75 0 147 -34t105 -99l25 108h346l-203 -901q-108 -489 -541 -489zM508 334
q67 0 119 69l51 232q-39 74 -129 74q-50 0 -90 -40t-59 -96.5t-19 -115.5q0 -58 34 -90.5t93 -32.5zM877 1284q0 -75 -61 -133.5t-136 -58.5q-66 0 -110 44t-44 109q0 76 60 134.5t137 58.5q65 0 109.5 -44t44.5 -110z" />
    <glyph glyph-name="Gcommaaccent" unicode="&#x122;" horiz-adv-x="1251" 
d="M662 -246q0 -101 -75.5 -201.5t-191.5 -156.5l-88 90q131 62 170 133q-4 -2 -20 -2q-49 0 -84 32.5t-35 92.5q0 66 54 117t120 51q62 0 106 -41.5t44 -114.5zM623 -25q-253 0 -412.5 151.5t-159.5 403.5q0 170 50.5 324t143 273.5t236.5 190.5t318 71q108 0 196 -33
t145.5 -90.5t92.5 -126.5t49 -148l-342 -114q-8 68 -58 119t-122 51q-86 0 -158.5 -75t-112.5 -191t-40 -240q0 -99 50.5 -161.5t143.5 -62.5q79 0 150 64l18 82h-190l77 338h551l-125 -561q-90 -129 -220 -197t-281 -68z" />
    <glyph glyph-name="gcommaaccent" unicode="&#x123;" horiz-adv-x="1081" 
d="M532 1251q0 102 77 204.5t194 158.5l90 -92q-50 -20 -100.5 -56t-73.5 -77h20q53 0 87 -32.5t34 -94.5q0 -68 -54.5 -118t-121.5 -50q-63 0 -107.5 41.5t-44.5 115.5zM360 -401q-290 0 -442 155l182 240q40 -51 110 -80t142 -29q75 0 127 45.5t78 157.5l18 74
q-98 -133 -241 -133q-141 0 -225 88t-84 266q0 83 17 169t54.5 169.5t89.5 148t128.5 104.5t166.5 40q75 0 147 -34t105 -99l25 108h346l-203 -901q-108 -489 -541 -489zM508 334q67 0 119 69l51 232q-39 74 -129 74q-50 0 -90 -40t-59 -96.5t-19 -115.5q0 -58 34 -90.5
t93 -32.5z" />
    <glyph glyph-name="Hcircumflex" unicode="&#x124;" horiz-adv-x="1314" 
d="M1178 1481h-191l-80 155l-141 -155h-199l217 295h301zM1106 0h-387l117 535h-344l-117 -535h-389l303 1366h387l-109 -494h344l109 494h387z" />
    <glyph glyph-name="hcircumflex" unicode="&#x125;" horiz-adv-x="1095" 
d="M1073 1481h-190l-80 155l-141 -155h-199l217 295h301zM899 0h-346l129 590q6 30 6 47q0 35 -25 53.5t-65 18.5q-68 0 -137 -86l-137 -623h-347l302 1366h346l-111 -492q130 140 287 140q123 0 193.5 -61.5t70.5 -159.5q0 -30 -8 -66z" />
    <glyph glyph-name="Hbar" unicode="&#x126;" horiz-adv-x="1314" 
d="M1106 0h-387l117 535h-344l-117 -535h-389l227 1026h-96l41 188h96l35 152h387l-35 -152h344l35 152h387l-35 -152h92l-39 -188h-94zM567 872h344l33 154h-344z" />
    <glyph glyph-name="hbar" unicode="&#x127;" horiz-adv-x="1110" 
d="M913 0h-346l129 590q6 30 6 47q0 35 -25 53.5t-65 18.5q-68 0 -137 -86l-137 -623h-346l235 1073h-82l41 189h84l23 104h346l-25 -104h258l-43 -189h-256l-45 -199q130 140 287 140q123 0 193.5 -61.5t70.5 -159.5q0 -30 -8 -66z" />
    <glyph glyph-name="Itilde" unicode="&#x128;" horiz-adv-x="583" 
d="M375 0h-389l303 1366h387zM639 1477q-44 0 -77.5 15.5t-50 33.5t-39 33.5t-46.5 15.5q-44 0 -61 -86h-175q29 137 88 205.5t162 68.5q44 0 77.5 -15.5t50.5 -33.5t40 -33.5t47 -15.5q42 0 62 86h174q-30 -137 -90 -205.5t-162 -68.5z" />
    <glyph glyph-name="itilde" unicode="&#x129;" horiz-adv-x="520" 
d="M324 0h-349l222 989h346zM532 1135q-44 0 -77.5 15.5t-50 33.5t-39 33.5t-46.5 15.5q-44 0 -61 -86h-174q29 137 88 205.5t162 68.5q44 0 77.5 -15.5t50.5 -33.5t40 -33.5t47 -15.5q41 0 61 86h174q-30 -137 -90 -205.5t-162 -68.5z" />
    <glyph glyph-name="Imacron" unicode="&#x12a;" horiz-adv-x="583" 
d="M375 0h-389l303 1366h387zM831 1475h-645l41 188h645z" />
    <glyph glyph-name="imacron" unicode="&#x12b;" horiz-adv-x="520" 
d="M324 0h-349l222 989h346zM725 1133h-645l41 188h645z" />
    <glyph glyph-name="Ibreve" unicode="&#x12c;" horiz-adv-x="583" 
d="M375 0h-389l303 1366h387zM838 1587q-70 -74 -160 -115.5t-184 -41.5q-95 0 -167.5 41.5t-111.5 115.5l168 117q42 -86 143 -86q103 0 183 86z" />
    <glyph glyph-name="ibreve" unicode="&#x12d;" horiz-adv-x="520" 
d="M324 0h-349l222 989h346zM735 1245q-70 -74 -160 -116t-184 -42t-166.5 42t-111.5 116l168 117q42 -86 143 -86q102 0 182 86z" />
    <glyph glyph-name="Iogonek" unicode="&#x12e;" horiz-adv-x="583" 
d="M324 -199l108 -88q-76 -94 -184 -94q-83 0 -139 40t-56 116q0 122 111 225h-178l303 1366h387l-301 -1366q-76 -41 -119 -95t-43 -110q0 -43 45 -43q39 0 66 49z" />
    <glyph glyph-name="iogonek" unicode="&#x12f;" horiz-adv-x="520" 
d="M272 -199l109 -88q-76 -94 -184 -94q-83 0 -139 40t-56 116q0 122 111 225h-138l222 989h346l-219 -989q-76 -41 -119 -95t-43 -110q0 -43 45 -43q38 0 65 49zM406 1069q-75 0 -126 49t-51 117q0 101 70 163t152 62q75 0 125.5 -48.5t50.5 -117.5q0 -101 -69.5 -163
t-151.5 -62z" />
    <glyph glyph-name="Idotaccent" unicode="&#x130;" horiz-adv-x="583" 
d="M375 0h-389l303 1366h387zM713 1626q0 -75 -61 -133.5t-136 -58.5q-66 0 -110 44t-44 109q0 76 60 134.5t137 58.5q65 0 109.5 -44t44.5 -110z" />
    <glyph glyph-name="dotlessi" unicode="&#x131;" horiz-adv-x="520" 
d="M324 0h-349l222 989h346z" />
    <glyph glyph-name="IJ" unicode="&#x132;" horiz-adv-x="1478" 
d="M375 0h-389l303 1366h387zM860 -25q-101 0 -196.5 26.5t-155.5 78.5l174 303q24 -28 65 -47t80 -19q61 0 101.5 35.5t54.5 100.5l203 913h387l-205 -926q-54 -244 -173.5 -354.5t-334.5 -110.5z" />
    <glyph glyph-name="ij" unicode="&#x133;" horiz-adv-x="1040" 
d="M406 1069q-75 0 -126 49t-51 117q0 101 70 163t152 62q75 0 125.5 -48.5t50.5 -117.5q0 -101 -69.5 -163t-151.5 -62zM324 0h-349l222 989h346zM426 -401q-167 0 -242 63l123 252q25 -29 80 -29q84 0 111 123l219 981h346l-219 -981q-21 -97 -51.5 -168.5t-79 -127.5
t-120.5 -84.5t-167 -28.5zM926 1069q-75 0 -125.5 48.5t-50.5 117.5q0 101 69.5 163t151.5 62q75 0 125.5 -48.5t50.5 -117.5q0 -101 -69.5 -163t-151.5 -62z" />
    <glyph glyph-name="Jcircumflex" unicode="&#x134;" horiz-adv-x="894" 
d="M1124 1481h-190l-80 155l-141 -155h-199l217 295h301zM276 -25q-101 0 -196.5 26.5t-155.5 78.5l174 303q23 -28 65 -47t81 -19q61 0 101 35.5t54 100.5l203 913h387l-205 -926q-54 -244 -173.5 -354.5t-334.5 -110.5z" />
    <glyph glyph-name="jcircumflex" unicode="&#x135;" horiz-adv-x="520" 
d="M707 1139h-191l-80 155l-141 -155h-199l217 295h301zM-94 -401q-167 0 -242 63l123 252q25 -29 80 -29q83 0 110 123l220 981h346l-219 -981q-21 -97 -51.5 -168.5t-79 -127.5t-120.5 -84.5t-167 -28.5z" />
    <glyph glyph-name="Kcommaaccent" unicode="&#x136;" horiz-adv-x="1224" 
d="M637 -246q0 -101 -75 -201.5t-191 -156.5l-88 90q131 62 170 133q-4 -2 -21 -2q-49 0 -84 32.5t-35 92.5q0 66 54 117t120 51q62 0 106 -41.5t44 -114.5zM1137 0h-430l-144 475l-114 -145l-74 -330h-389l303 1366h387l-109 -496l379 496h469l-557 -635z" />
    <glyph glyph-name="kcommaaccent" unicode="&#x137;" 
d="M524 -246q0 -101 -75 -201.5t-191 -156.5l-88 90q131 62 170 133q-4 -2 -21 -2q-49 0 -83.5 32.5t-34.5 92.5q0 66 54 117t120 51q62 0 105.5 -41.5t43.5 -114.5zM934 0h-397l-68 336l-98 -119l-47 -217h-349l304 1366h346l-160 -717l258 340h410l-379 -442z" />
    <glyph glyph-name="kgreenlandic" unicode="&#x138;" 
d="M934 0h-397l-68 336l-98 -119l-47 -217h-349l222 989h346l-78 -340l258 340h410l-379 -442z" />
    <glyph glyph-name="Lacute" unicode="&#x139;" horiz-adv-x="954" 
d="M1155 1776l-338 -295h-227l270 295h295zM797 0h-811l303 1366h387l-225 -1028h421z" />
    <glyph glyph-name="lacute" unicode="&#x13a;" horiz-adv-x="520" 
d="M913 1776l-338 -295h-227l270 295h295zM324 0h-349l304 1366h346z" />
    <glyph glyph-name="Lcommaaccent" unicode="&#x13b;" horiz-adv-x="954" 
d="M496 -246q0 -101 -75.5 -201.5t-191.5 -156.5l-88 90q131 62 170 133q-4 -2 -20 -2q-49 0 -84 32.5t-35 92.5q0 66 54 117t120 51q62 0 106 -41.5t44 -114.5zM797 0h-811l303 1366h387l-225 -1028h421z" />
    <glyph glyph-name="lcommaaccent" unicode="&#x13c;" horiz-adv-x="520" 
d="M252 -246q0 -101 -75 -201.5t-191 -156.5l-88 90q131 62 170 133q-4 -2 -21 -2q-49 0 -84 32.5t-35 92.5q0 66 54 117t120 51q62 0 106 -41.5t44 -114.5zM324 0h-349l304 1366h346z" />
    <glyph glyph-name="Lcaron" unicode="&#x13d;" horiz-adv-x="954" 
d="M1075 1241q0 -101 -75 -201.5t-191 -156.5l-88 90q131 62 170 133q-4 -2 -21 -2q-49 0 -83.5 32.5t-34.5 92.5q0 66 54 117t120 51q62 0 105.5 -41.5t43.5 -114.5zM797 0h-811l303 1366h387l-225 -1028h421z" />
    <glyph glyph-name="lcaron" unicode="&#x13e;" horiz-adv-x="808" 
d="M999 1241q0 -101 -75 -201.5t-191 -156.5l-88 90q131 62 170 133q-4 -2 -20 -2q-49 0 -84 32.5t-35 92.5q0 66 54 117t120 51q62 0 105.5 -41.5t43.5 -114.5zM324 0h-349l304 1366h346z" />
    <glyph glyph-name="Ldot" unicode="&#x13f;" horiz-adv-x="1120" 
d="M797 0h-811l303 1366h387l-225 -1028h421zM881 494q-79 0 -134 56.5t-55 135.5q0 92 67.5 158.5t160.5 66.5q78 0 132 -56t54 -136q0 -91 -67 -158t-158 -67z" />
    <glyph glyph-name="ldot" unicode="&#x140;" horiz-adv-x="909" 
d="M324 0h-349l304 1366h346zM696 293q-79 0 -133.5 56.5t-54.5 135.5q0 92 67.5 159t159.5 67q78 0 132.5 -56.5t54.5 -136.5q0 -91 -67.5 -158t-158.5 -67z" />
    <glyph glyph-name="Lslash" unicode="&#x141;" horiz-adv-x="970" 
d="M-12 362l67 308l107 55l143 641h387l-92 -416l129 66l-67 -309l-130 -66l-65 -303h422l-76 -338h-811l92 416z" />
    <glyph glyph-name="lslash" unicode="&#x142;" horiz-adv-x="604" 
d="M-6 397l55 244l125 64l148 661h346l-103 -463l125 64l-53 -242l-125 -63l-145 -662h-349l103 461z" />
    <glyph glyph-name="Nacute" unicode="&#x143;" horiz-adv-x="1312" 
d="M1311 1776l-338 -295h-228l271 295h295zM1104 0h-367l-221 639l-141 -639h-389l303 1366h393l205 -598l131 598h387z" />
    <glyph glyph-name="nacute" unicode="&#x144;" horiz-adv-x="1095" 
d="M1124 1434l-338 -295h-227l270 295h295zM897 0h-346l129 584q8 48 8 53q0 35 -23.5 53.5t-58.5 18.5q-76 0 -145 -86l-137 -623h-349l222 989h346l-29 -115q130 140 287 140q123 0 193.5 -61.5t70.5 -159.5q0 -38 -8 -66z" />
    <glyph glyph-name="Ncommaaccent" unicode="&#x145;" horiz-adv-x="1312" 
d="M653 -246q0 -101 -75 -201.5t-191 -156.5l-88 90q131 62 170 133q-4 -2 -20 -2q-49 0 -84 32.5t-35 92.5q0 66 54 117t120 51q62 0 105.5 -41.5t43.5 -114.5zM1104 0h-367l-221 639l-141 -639h-389l303 1366h393l205 -598l131 598h387z" />
    <glyph glyph-name="ncommaaccent" unicode="&#x146;" horiz-adv-x="1095" 
d="M539 -246q0 -101 -75.5 -201.5t-191.5 -156.5l-88 90q131 62 170 133q-4 -2 -20 -2q-49 0 -84 32.5t-35 92.5q0 66 54 117t120 51q62 0 106 -41.5t44 -114.5zM897 0h-346l129 584q8 48 8 53q0 35 -23.5 53.5t-58.5 18.5q-76 0 -145 -86l-137 -623h-349l222 989h346
l-29 -115q130 140 287 140q123 0 193.5 -61.5t70.5 -159.5q0 -38 -8 -66z" />
    <glyph glyph-name="Ncaron" unicode="&#x147;" horiz-adv-x="1312" 
d="M1028 1481h-301l-92 295h190l80 -156l142 156h198zM1104 0h-367l-221 639l-141 -639h-389l303 1366h393l205 -598l131 598h387z" />
    <glyph glyph-name="ncaron" unicode="&#x148;" horiz-adv-x="1095" 
d="M844 1139h-301l-92 295h190l80 -156l141 156h199zM897 0h-346l129 584q8 48 8 53q0 35 -23.5 53.5t-58.5 18.5q-76 0 -145 -86l-137 -623h-349l222 989h346l-29 -115q130 140 287 140q123 0 193.5 -61.5t70.5 -159.5q0 -38 -8 -66z" />
    <glyph glyph-name="napostrophe" unicode="&#x149;" horiz-adv-x="1095" 
d="M565 1446q0 -101 -75 -202t-191 -157l-88 91q131 62 170 133q-4 -2 -21 -2q-49 0 -83.5 32.5t-34.5 92.5q0 66 54 117t120 51q62 0 105.5 -41.5t43.5 -114.5zM897 0h-346l129 584q8 48 8 53q0 35 -23.5 53.5t-58.5 18.5q-76 0 -145 -86l-137 -623h-349l222 989h346
l-29 -115q130 140 287 140q123 0 193.5 -61.5t70.5 -159.5q0 -38 -8 -66z" />
    <glyph glyph-name="Eng" unicode="&#x14a;" horiz-adv-x="1312" 
d="M608 -401q-102 0 -195 26t-155 78l164 274q25 -26 67 -43.5t82 -17.5q57 0 97 32.5t55 90.5l-207 600l-141 -639h-389l303 1366h393l205 -598l131 598h387l-287 -1303q-54 -245 -175.5 -354.5t-334.5 -109.5z" />
    <glyph glyph-name="eng" unicode="&#x14b;" horiz-adv-x="1095" 
d="M1057 727l-158 -717q-46 -207 -143.5 -309t-274.5 -102q-161 0 -241 63l127 270q28 -28 79 -28q40 0 68 28t39 78l131 588q4 28 4 37q0 37 -20.5 55.5t-51.5 18.5q-86 0 -155 -86l-137 -623h-349l222 989h346l-29 -115q130 140 287 140q119 0 191.5 -60t72.5 -159
q0 -37 -8 -68z" />
    <glyph glyph-name="Omacron" unicode="&#x14c;" horiz-adv-x="1318" 
d="M1198 1475h-645l41 188h645zM623 -25q-259 0 -415.5 155t-156.5 400q0 129 30 253t91.5 233.5t147 192.5t204 131.5t254.5 48.5q256 0 413 -155.5t157 -397.5q0 -129 -30 -253.5t-91.5 -234.5t-147 -193t-203.5 -131.5t-253 -48.5zM641 317q88 0 160.5 79t110.5 194
t38 233q0 99 -52.5 161.5t-141.5 62.5q-88 0 -160 -79t-109.5 -194t-37.5 -233q0 -99 51.5 -161.5t140.5 -62.5z" />
    <glyph glyph-name="omacron" unicode="&#x14d;" horiz-adv-x="1052" 
d="M991 1133h-645l41 188h645zM479 -25q-220 0 -337 119.5t-117 313.5q0 111 39 219t107.5 194.5t172.5 139.5t225 53q221 0 339 -119t118 -313q0 -89 -24 -176.5t-72 -165t-113 -137t-152.5 -94t-185.5 -34.5zM496 281q54 0 97.5 53.5t63 119.5t19.5 124q0 131 -123 131
q-53 0 -96 -53t-62.5 -119.5t-19.5 -122.5q0 -66 31.5 -99.5t89.5 -33.5z" />
    <glyph glyph-name="Obreve" unicode="&#x14e;" horiz-adv-x="1318" 
d="M623 -25q-259 0 -415.5 155t-156.5 400q0 129 30 253t91.5 233.5t147 192.5t204 131.5t254.5 48.5q256 0 413 -155.5t157 -397.5q0 -129 -30 -253.5t-91.5 -234.5t-147 -193t-203.5 -131.5t-253 -48.5zM641 317q88 0 160.5 79t110.5 194t38 233q0 99 -52.5 161.5
t-141.5 62.5q-88 0 -160 -79t-109.5 -194t-37.5 -233q0 -99 51.5 -161.5t140.5 -62.5zM1208 1587q-70 -74 -160 -115.5t-184 -41.5t-166.5 41.5t-111.5 115.5l168 117q42 -86 143 -86q102 0 182 86z" />
    <glyph glyph-name="obreve" unicode="&#x14f;" horiz-adv-x="1052" 
d="M479 -25q-220 0 -337 119.5t-117 313.5q0 111 39 219t107.5 194.5t172.5 139.5t225 53q221 0 339 -119t118 -313q0 -89 -24 -176.5t-72 -165t-113 -137t-152.5 -94t-185.5 -34.5zM496 281q54 0 97.5 53.5t63 119.5t19.5 124q0 131 -123 131q-53 0 -96 -53t-62.5 -119.5
t-19.5 -122.5q0 -66 31.5 -99.5t89.5 -33.5zM999 1245q-70 -74 -160 -116t-184 -42t-166.5 42t-111.5 116l168 117q42 -86 143 -86q102 0 182 86z" />
    <glyph glyph-name="Ohungarumlaut" unicode="&#x150;" horiz-adv-x="1318" 
d="M1028 1776l-268 -295h-189l201 295h256zM1331 1776l-268 -295h-189l201 295h256zM623 -25q-259 0 -415.5 155t-156.5 400q0 129 30 253t91.5 233.5t147 192.5t204 131.5t254.5 48.5q256 0 413 -155.5t157 -397.5q0 -129 -30 -253.5t-91.5 -234.5t-147 -193t-203.5 -131.5
t-253 -48.5zM641 317q88 0 160.5 79t110.5 194t38 233q0 99 -52.5 161.5t-141.5 62.5q-88 0 -160 -79t-109.5 -194t-37.5 -233q0 -99 51.5 -161.5t140.5 -62.5z" />
    <glyph glyph-name="ohungarumlaut" unicode="&#x151;" horiz-adv-x="1052" 
d="M821 1434l-268 -295h-188l200 295h256zM1124 1434l-268 -295h-188l200 295h256zM479 -25q-220 0 -337 119.5t-117 313.5q0 111 39 219t107.5 194.5t172.5 139.5t225 53q221 0 339 -119t118 -313q0 -89 -24 -176.5t-72 -165t-113 -137t-152.5 -94t-185.5 -34.5zM496 281
q54 0 97.5 53.5t63 119.5t19.5 124q0 131 -123 131q-53 0 -96 -53t-62.5 -119.5t-19.5 -122.5q0 -66 31.5 -99.5t89.5 -33.5z" />
    <glyph glyph-name="OE" unicode="&#x152;" horiz-adv-x="1775" 
d="M1614 0h-860l16 86q-102 -111 -276 -111q-91 0 -172 39t-141.5 109.5t-96 176t-35.5 230.5q0 172 52 329t142 273t220.5 185t279.5 69q93 0 168.5 -31t120.5 -89l23 100h860l-74 -338h-475l-35 -168h459l-74 -338h-461l-41 -184h476zM852 453l100 448q-21 71 -70.5 107
t-115.5 36q-96 0 -171.5 -79t-112 -192t-36.5 -232q0 -102 51 -163t136 -61q62 0 120 35.5t99 100.5z" />
    <glyph glyph-name="oe" unicode="&#x153;" horiz-adv-x="1632" 
d="M1581 385h-584q-2 -2 -2 -16q0 -38 47 -80.5t134 -42.5q47 0 99.5 15t86.5 42l104 -221q-64 -51 -154 -79t-184 -28q-111 0 -196 40.5t-131 107.5q-77 -73 -152 -110.5t-174 -37.5q-213 0 -331.5 117t-118.5 316q0 111 37.5 218.5t105 194t171.5 140t226 53.5
q102 0 186.5 -39.5t135.5 -106.5q143 146 321 146q85 0 156.5 -24t128 -72.5t88 -129t31.5 -184.5q0 -88 -31 -219zM1036 612h267q4 12 4 25q0 42 -28.5 74t-90.5 32q-61 0 -101 -41t-51 -90zM668 578q0 59 -30.5 95t-88.5 36q-50 0 -91.5 -48.5t-62 -115t-20.5 -131.5
q0 -61 30 -97t89 -36q53 0 94.5 52t60.5 118t19 127z" />
    <glyph glyph-name="Racute" unicode="&#x154;" horiz-adv-x="1216" 
d="M1270 1776l-338 -295h-227l270 295h295zM1055 0h-416l-55 442h-111l-98 -442h-389l303 1366h545q177 0 297 -113t120 -286q0 -163 -87 -296.5t-203 -178.5zM547 780h153q66 0 108 41t42 105q0 49 -29 75.5t-73 26.5h-146z" />
    <glyph glyph-name="racute" unicode="&#x155;" horiz-adv-x="716" 
d="M1001 1434l-337 -295h-228l271 295h294zM324 0h-349l222 989h346l-27 -110q50 62 127 100.5t164 38.5l-76 -338q-37 14 -86 14q-108 0 -188 -86z" />
    <glyph glyph-name="Rcommaaccent" unicode="&#x156;" horiz-adv-x="1216" 
d="M610 -246q0 -101 -75 -201.5t-191 -156.5l-88 90q131 62 170 133q-4 -2 -20 -2q-49 0 -84 32.5t-35 92.5q0 66 54 117t120 51q62 0 105.5 -41.5t43.5 -114.5zM1055 0h-416l-55 442h-111l-98 -442h-389l303 1366h545q177 0 297 -113t120 -286q0 -163 -87 -296.5
t-203 -178.5zM547 780h153q66 0 108 41t42 105q0 49 -29 75.5t-73 26.5h-146z" />
    <glyph glyph-name="rcommaaccent" unicode="&#x157;" horiz-adv-x="716" 
d="M403 -246q0 -101 -75 -201.5t-191 -156.5l-88 90q131 62 170 133q-4 -2 -20 -2q-49 0 -84 32.5t-35 92.5q0 66 54 117t120 51q62 0 105.5 -41.5t43.5 -114.5zM324 0h-349l222 989h346l-27 -110q50 62 127 100.5t164 38.5l-76 -338q-37 14 -86 14q-108 0 -188 -86z" />
    <glyph glyph-name="Rcaron" unicode="&#x158;" horiz-adv-x="1216" 
d="M987 1481h-301l-92 295h190l80 -156l142 156h198zM1055 0h-416l-55 442h-111l-98 -442h-389l303 1366h545q177 0 297 -113t120 -286q0 -163 -87 -296.5t-203 -178.5zM547 780h153q66 0 108 41t42 105q0 49 -29 75.5t-73 26.5h-146z" />
    <glyph glyph-name="rcaron" unicode="&#x159;" horiz-adv-x="716" 
d="M713 1139h-301l-93 295h191l80 -156l141 156h199zM324 0h-349l222 989h346l-27 -110q50 62 127 100.5t164 38.5l-76 -338q-37 14 -86 14q-108 0 -188 -86z" />
    <glyph glyph-name="Sacute" unicode="&#x15a;" horiz-adv-x="1075" 
d="M1206 1776l-338 -295h-227l270 295h295zM506 -25q-174 0 -322 60t-231 160l223 280q54 -72 150.5 -118t195.5 -46q50 0 78.5 24t28.5 58q0 28 -36.5 56t-91.5 51.5t-119 60.5t-119 79t-91.5 109.5t-36.5 149.5q0 95 37.5 183t104.5 156.5t169.5 109.5t223.5 41
q138 0 268 -49.5t219 -139.5l-217 -278q-58 64 -141.5 98.5t-163.5 34.5q-42 0 -66 -22.5t-24 -53.5q0 -25 27 -48.5t70.5 -46t95.5 -48t104.5 -59.5t96 -75t70.5 -101t27 -130q0 -102 -37.5 -193t-105.5 -158t-168 -106t-219 -39z" />
    <glyph glyph-name="sacute" unicode="&#x15b;" horiz-adv-x="892" 
d="M1038 1434l-338 -295h-227l270 295h295zM397 -25q-132 0 -254.5 48t-195.5 122l180 220q44 -49 125.5 -90.5t159.5 -41.5q35 0 56 14t21 36t-30 41t-74.5 33t-97 38t-97 53t-74.5 82t-30 121q0 70 27 134.5t77 116t130 82t178 30.5q115 0 223.5 -40t185.5 -114l-166 -213
q-35 39 -104 74t-137 35q-36 0 -56 -14t-20 -35q0 -18 30.5 -34.5t76 -30t98.5 -38t98.5 -55t76 -84t30.5 -121.5q0 -155 -119 -262t-318 -107z" />
    <glyph glyph-name="Scircumflex" unicode="&#x15c;" horiz-adv-x="1075" 
d="M1073 1481h-190l-80 155l-141 -155h-199l217 295h301zM506 -25q-174 0 -322 60t-231 160l223 280q54 -72 150.5 -118t195.5 -46q50 0 78.5 24t28.5 58q0 28 -36.5 56t-91.5 51.5t-119 60.5t-119 79t-91.5 109.5t-36.5 149.5q0 95 37.5 183t104.5 156.5t169.5 109.5
t223.5 41q138 0 268 -49.5t219 -139.5l-217 -278q-58 64 -141.5 98.5t-163.5 34.5q-42 0 -66 -22.5t-24 -53.5q0 -25 27 -48.5t70.5 -46t95.5 -48t104.5 -59.5t96 -75t70.5 -101t27 -130q0 -102 -37.5 -193t-105.5 -158t-168 -106t-219 -39z" />
    <glyph glyph-name="scircumflex" unicode="&#x15d;" horiz-adv-x="892" 
d="M905 1139h-190l-80 155l-141 -155h-199l217 295h301zM397 -25q-132 0 -254.5 48t-195.5 122l180 220q44 -49 125.5 -90.5t159.5 -41.5q35 0 56 14t21 36t-30 41t-74.5 33t-97 38t-97 53t-74.5 82t-30 121q0 70 27 134.5t77 116t130 82t178 30.5q115 0 223.5 -40
t185.5 -114l-166 -213q-35 39 -104 74t-137 35q-36 0 -56 -14t-20 -35q0 -18 30.5 -34.5t76 -30t98.5 -38t98.5 -55t76 -84t30.5 -121.5q0 -155 -119 -262t-318 -107z" />
    <glyph glyph-name="Scedilla" unicode="&#x15e;" horiz-adv-x="1075" 
d="M383 -408q-76 0 -138.5 23.5t-101.5 62.5l82 117q69 -69 156 -69q33 0 53.5 14.5t20.5 40.5q0 14 -11 24.5t-30 10.5q-26 0 -47 -25l-103 66l80 133q-125 22 -227 75.5t-164 129.5l223 280q54 -72 150.5 -118t195.5 -46q50 0 78.5 24t28.5 58q0 28 -36.5 56t-91.5 51.5
t-119 60.5t-119 79t-91.5 109.5t-36.5 149.5q0 95 37.5 183t104.5 156.5t169.5 109.5t223.5 41q138 0 268 -49.5t219 -139.5l-217 -278q-58 64 -141.5 98.5t-163.5 34.5q-42 0 -66 -22.5t-24 -53.5q0 -25 27 -48.5t70.5 -46t95.5 -48t104.5 -59.5t96 -75t70.5 -101t27 -130
q0 -102 -37.5 -193t-105.5 -158t-168 -106t-219 -39h-17l-47 -73q23 18 54 18q51 0 83.5 -35.5t32.5 -95.5q0 -88 -65.5 -142.5t-163.5 -54.5z" />
    <glyph glyph-name="scedilla" unicode="&#x15f;" horiz-adv-x="892" 
d="M287 -408q-76 0 -138.5 23.5t-101.5 62.5l82 117q69 -69 156 -69q33 0 53 14.5t20 40.5q0 14 -11 24.5t-30 10.5q-26 0 -47 -25l-102 66l80 135q-190 39 -301 153l180 220q44 -49 125.5 -90.5t159.5 -41.5q35 0 56 14t21 36t-30 41t-74.5 33t-97 38t-97 53t-74.5 82
t-30 121q0 70 27 134.5t77 116t130 82t178 30.5q115 0 223.5 -40t185.5 -114l-166 -213q-35 39 -104 74t-137 35q-36 0 -56 -14t-20 -35q0 -18 30.5 -34.5t76 -30t98.5 -38t98.5 -55t76 -84t30.5 -121.5q0 -155 -119 -262t-318 -107h-4l-47 -73q23 18 53 18q51 0 84 -35.5
t33 -95.5q0 -88 -65.5 -142.5t-163.5 -54.5z" />
    <glyph glyph-name="Scaron" unicode="&#x160;" horiz-adv-x="1075" 
d="M922 1481h-301l-93 295h191l80 -156l141 156h199zM506 -25q-174 0 -322 60t-231 160l223 280q54 -72 150.5 -118t195.5 -46q50 0 78.5 24t28.5 58q0 28 -36.5 56t-91.5 51.5t-119 60.5t-119 79t-91.5 109.5t-36.5 149.5q0 95 37.5 183t104.5 156.5t169.5 109.5t223.5 41
q138 0 268 -49.5t219 -139.5l-217 -278q-58 64 -141.5 98.5t-163.5 34.5q-42 0 -66 -22.5t-24 -53.5q0 -25 27 -48.5t70.5 -46t95.5 -48t104.5 -59.5t96 -75t70.5 -101t27 -130q0 -102 -37.5 -193t-105.5 -158t-168 -106t-219 -39z" />
    <glyph glyph-name="scaron" unicode="&#x161;" horiz-adv-x="892" 
d="M756 1139h-301l-93 295h191l80 -156l141 156h199zM397 -25q-132 0 -254.5 48t-195.5 122l180 220q44 -49 125.5 -90.5t159.5 -41.5q35 0 56 14t21 36t-30 41t-74.5 33t-97 38t-97 53t-74.5 82t-30 121q0 70 27 134.5t77 116t130 82t178 30.5q115 0 223.5 -40t185.5 -114
l-166 -213q-35 39 -104 74t-137 35q-36 0 -56 -14t-20 -35q0 -18 30.5 -34.5t76 -30t98.5 -38t98.5 -55t76 -84t30.5 -121.5q0 -155 -119 -262t-318 -107z" />
    <glyph glyph-name="Tcommaaccent" unicode="&#x162;" 
d="M512 -246q0 -101 -75 -201.5t-191 -156.5l-88 90q131 62 170 133q-4 -2 -21 -2q-49 0 -84 32.5t-35 92.5q0 66 54 117t120 51q62 0 106 -41.5t44 -114.5zM598 0h-389l227 1028h-282l73 338h953l-76 -338h-281z" />
    <glyph glyph-name="tcommaaccent" unicode="&#x163;" horiz-adv-x="679" 
d="M324 -246q0 -101 -75.5 -201.5t-191.5 -156.5l-88 90q131 62 170 133q-4 -2 -20 -2q-49 0 -84 32.5t-35 92.5q0 66 54 117t120 51q62 0 106 -41.5t44 -114.5zM414 -25q-155 0 -241.5 58t-86.5 172q0 44 10 90l88 395h-125l68 299h125l59 271h346l-59 -271h158l-68 -299
h-158l-67 -301q-4 -32 -4 -43q0 -65 69 -65q31 0 43 12l-4 -285q-54 -33 -153 -33z" />
    <glyph glyph-name="Tcaron" unicode="&#x164;" 
d="M877 1481h-302l-92 295h191l80 -156l141 156h199zM598 0h-389l227 1028h-282l73 338h953l-76 -338h-281z" />
    <glyph glyph-name="tcaron" unicode="&#x165;" horiz-adv-x="786" 
d="M1051 1446q0 -101 -75.5 -202t-191.5 -157l-88 91q131 62 170 133q-4 -2 -20 -2q-49 0 -84 32.5t-35 92.5q0 66 54 117t120 51q62 0 106 -41.5t44 -114.5zM414 -25q-155 0 -241.5 58t-86.5 172q0 44 10 90l88 395h-125l68 299h125l59 271h346l-59 -271h158l-68 -299h-158
l-67 -301q-4 -32 -4 -43q0 -65 69 -65q31 0 43 12l-4 -285q-54 -33 -153 -33z" />
    <glyph glyph-name="Tbar" unicode="&#x166;" 
d="M598 0h-389l106 487h-184l41 189h186l78 352h-282l73 338h953l-76 -338h-281l-78 -352h185l-41 -189h-184z" />
    <glyph glyph-name="tbar" unicode="&#x167;" horiz-adv-x="679" 
d="M414 -25q-155 0 -241.5 58t-86.5 172q0 44 10 90l23 104h-125l43 189h125l22 102h-125l68 299h125l59 271h346l-59 -271h158l-68 -299h-158l-24 -102h102l-41 -189h-102l-2 -10q-4 -32 -4 -43q0 -65 69 -65q31 0 43 12l-4 -285q-54 -33 -153 -33z" />
    <glyph glyph-name="Utilde" unicode="&#x168;" horiz-adv-x="1331" 
d="M627 -25q-250 0 -393.5 123t-143.5 326q0 34 8 84l191 858h391l-193 -870q-6 -36 -6 -47q2 -56 44 -96t116 -40q159 0 199 183l192 870h391l-192 -864q-54 -252 -206.5 -389.5t-397.5 -137.5zM1014 1477q-44 0 -77.5 15.5t-50 33.5t-39 33.5t-46.5 15.5q-45 0 -62 -86
h-174q29 137 88 205.5t162 68.5q44 0 77.5 -15.5t50.5 -33.5t40 -33.5t47 -15.5q42 0 62 86h174q-30 -137 -90 -205.5t-162 -68.5z" />
    <glyph glyph-name="utilde" unicode="&#x169;" horiz-adv-x="1093" 
d="M195 989h346l-131 -592q-7 -31 -7 -47q0 -32 24.5 -50.5t61.5 -18.5q74 0 142 86l139 622h346l-219 -989h-346l27 115q-130 -140 -285 -140q-123 0 -194.5 62t-71.5 160q0 3 8 67zM817 1135q-44 0 -77.5 15.5t-50 33.5t-39 33.5t-46.5 15.5q-44 0 -61 -86h-174
q29 137 88 205.5t161 68.5q44 0 78 -15.5t51 -33.5t40 -33.5t47 -15.5q41 0 61 86h174q-30 -137 -90 -205.5t-162 -68.5z" />
    <glyph glyph-name="Umacron" unicode="&#x16a;" horiz-adv-x="1331" 
d="M627 -25q-250 0 -393.5 123t-143.5 326q0 34 8 84l191 858h391l-193 -870q-6 -36 -6 -47q2 -56 44 -96t116 -40q159 0 199 183l192 870h391l-192 -864q-54 -252 -206.5 -389.5t-397.5 -137.5zM1204 1475h-645l41 188h645z" />
    <glyph glyph-name="umacron" unicode="&#x16b;" horiz-adv-x="1093" 
d="M195 989h346l-131 -592q-7 -31 -7 -47q0 -32 24.5 -50.5t61.5 -18.5q74 0 142 86l139 622h346l-219 -989h-346l27 115q-130 -140 -285 -140q-123 0 -194.5 62t-71.5 160q0 3 8 67zM1010 1133h-645l41 188h645z" />
    <glyph glyph-name="Ubreve" unicode="&#x16c;" horiz-adv-x="1331" 
d="M627 -25q-250 0 -393.5 123t-143.5 326q0 34 8 84l191 858h391l-193 -870q-6 -36 -6 -47q2 -56 44 -96t116 -40q159 0 199 183l192 870h391l-192 -864q-54 -252 -206.5 -389.5t-397.5 -137.5zM1212 1587q-70 -74 -160 -115.5t-184 -41.5t-166.5 41.5t-111.5 115.5
l168 117q42 -86 143 -86q102 0 182 86z" />
    <glyph glyph-name="ubreve" unicode="&#x16d;" horiz-adv-x="1093" 
d="M195 989h346l-131 -592q-7 -31 -7 -47q0 -32 24.5 -50.5t61.5 -18.5q74 0 142 86l139 622h346l-219 -989h-346l27 115q-130 -140 -285 -140q-123 0 -194.5 62t-71.5 160q0 3 8 67zM1018 1245q-70 -74 -160 -116t-184 -42t-167 42t-112 116l168 117q42 -86 144 -86t182 86
z" />
    <glyph glyph-name="Uring" unicode="&#x16e;" horiz-adv-x="1331" 
d="M891 1407q-85 0 -138 53.5t-53 138.5q0 94 70 164t164 70q86 0 138 -53t52 -138q0 -95 -69 -165t-164 -70zM909 1552q28 0 50 22.5t22 51.5q0 28 -17 46t-44 18q-29 0 -50.5 -22.5t-21.5 -51.5q0 -28 17 -46t44 -18zM627 -25q-250 0 -393.5 123t-143.5 326q0 34 8 84
l191 858h391l-193 -870q-6 -36 -6 -47q2 -56 44 -96t116 -40q159 0 199 183l192 870h391l-192 -864q-54 -252 -206.5 -389.5t-397.5 -137.5z" />
    <glyph glyph-name="uring" unicode="&#x16f;" horiz-adv-x="1093" 
d="M698 1071q-84 0 -137 54t-53 139q0 94 69.5 163.5t163.5 69.5q86 0 138.5 -52.5t52.5 -137.5q0 -95 -69.5 -165.5t-164.5 -70.5zM717 1217q28 0 49.5 22t21.5 51q0 28 -17 46t-44 18q-29 0 -50.5 -22.5t-21.5 -51.5q0 -28 17 -45.5t45 -17.5zM195 989h346l-131 -592
q-7 -31 -7 -47q0 -32 24.5 -50.5t61.5 -18.5q74 0 142 86l139 622h346l-219 -989h-346l27 115q-130 -140 -285 -140q-123 0 -194.5 62t-71.5 160q0 3 8 67z" />
    <glyph glyph-name="Uhungarumlaut" unicode="&#x170;" horiz-adv-x="1331" 
d="M627 -25q-250 0 -393.5 123t-143.5 326q0 34 8 84l191 858h391l-193 -870q-6 -36 -6 -47q2 -56 44 -96t116 -40q159 0 199 183l192 870h391l-192 -864q-54 -252 -206.5 -389.5t-397.5 -137.5zM1036 1776l-268 -295h-188l200 295h256zM1339 1776l-268 -295h-188l200 295
h256z" />
    <glyph glyph-name="uhungarumlaut" unicode="&#x171;" horiz-adv-x="1093" 
d="M195 989h346l-131 -592q-7 -31 -7 -47q0 -32 24.5 -50.5t61.5 -18.5q74 0 142 86l139 622h346l-219 -989h-346l27 115q-130 -140 -285 -140q-123 0 -194.5 62t-71.5 160q0 3 8 67zM842 1434l-269 -295h-188l201 295h256zM1145 1434l-268 -295h-189l201 295h256z" />
    <glyph glyph-name="Uogonek" unicode="&#x172;" horiz-adv-x="1331" 
d="M762 -199l108 -88q-76 -94 -184 -94q-83 0 -138.5 40t-55.5 116q0 109 88 202q-229 12 -359.5 133t-130.5 314q0 34 8 84l191 858h391l-193 -870q-6 -36 -6 -47q2 -56 44 -96t116 -40q159 0 199 183l192 870h391l-192 -864q-42 -199 -148.5 -328.5t-271.5 -173.5
q-76 -41 -118 -95t-42 -110q0 -43 45 -43q39 0 66 49z" />
    <glyph glyph-name="uogonek" unicode="&#x173;" horiz-adv-x="1093" 
d="M195 989h346l-131 -592q-7 -31 -7 -47q0 -32 24.5 -50.5t61.5 -18.5q74 0 142 86l139 622h346l-219 -989h-2q-76 -41 -119 -95t-43 -110q0 -43 45 -43q39 0 66 49l108 -88q-76 -94 -184 -94q-83 0 -139 40t-56 116q0 122 111 225h-133l27 115q-130 -140 -285 -140
q-123 0 -194.5 62t-71.5 160q0 3 8 67z" />
    <glyph glyph-name="Wcircumflex" unicode="&#x174;" horiz-adv-x="1677" 
d="M1354 1481h-191l-80 155l-141 -155h-199l218 295h301zM1255 0h-397l33 741l-293 -741h-395l-21 1366h408l-45 -788l329 788h293l-14 -788l301 788h422z" />
    <glyph glyph-name="wcircumflex" unicode="&#x175;" horiz-adv-x="1515" 
d="M1190 1139h-191l-79 155l-142 -155h-198l217 295h301zM1157 0h-371l-18 553l-260 -553h-371l-43 989h346l-6 -551l260 551h316l22 -551l240 551h366z" />
    <glyph glyph-name="Ycircumflex" unicode="&#x176;" horiz-adv-x="1181" 
d="M1114 1481h-190l-80 155l-142 -155h-198l217 295h301zM676 0h-389l121 547l-242 819h405l91 -467l294 467h441l-602 -819z" />
    <glyph glyph-name="ycircumflex" unicode="&#x177;" horiz-adv-x="993" 
d="M-98 -373l110 289q24 -12 76 -12q59 0 86 43l29 47l-115 995h354l25 -573l283 573h374l-626 -1116q-88 -157 -178.5 -215.5t-225.5 -58.5q-122 0 -192 28zM934 1139h-191l-79 155l-142 -155h-198l217 295h301z" />
    <glyph glyph-name="Ydieresis" unicode="&#x178;" horiz-adv-x="1181" 
d="M1217 1624q0 -75 -61 -133.5t-136 -58.5q-66 0 -110 44t-44 109q0 76 60 134.5t137 58.5q65 0 109.5 -44t44.5 -110zM805 1624q0 -75 -60 -133.5t-135 -58.5q-66 0 -109.5 44t-43.5 109q0 76 59.5 134.5t134.5 58.5q66 0 110 -44t44 -110zM676 0h-389l121 547l-242 819
h405l91 -467l294 467h441l-602 -819z" />
    <glyph glyph-name="Zacute" unicode="&#x179;" horiz-adv-x="1036" 
d="M1163 1776l-338 -295h-227l270 295h295zM862 0h-909l70 315l555 713h-398l74 338h895l-68 -307l-561 -721h418z" />
    <glyph glyph-name="zacute" unicode="&#x17a;" horiz-adv-x="874" 
d="M1010 1434l-338 -295h-228l271 295h295zM711 0h-768l55 254l399 436h-303l68 299h760l-54 -241l-409 -447h317z" />
    <glyph glyph-name="Zdotaccent" unicode="&#x17b;" horiz-adv-x="1036" 
d="M862 0h-909l70 315l555 713h-398l74 338h895l-68 -307l-561 -721h418zM932 1626q0 -75 -61 -133.5t-136 -58.5q-66 0 -109.5 44t-43.5 109q0 76 59.5 134.5t136.5 58.5q65 0 109.5 -44t44.5 -110z" />
    <glyph glyph-name="zdotaccent" unicode="&#x17c;" horiz-adv-x="874" 
d="M711 0h-768l55 254l399 436h-303l68 299h760l-54 -241l-409 -447h317zM778 1284q0 -75 -60.5 -133.5t-135.5 -58.5q-66 0 -110 44t-44 109q0 76 60 134.5t137 58.5q65 0 109 -44t44 -110z" />
    <glyph glyph-name="Zcaron" unicode="&#x17d;" horiz-adv-x="1036" 
d="M883 1481h-301l-93 295h191l80 -156l141 156h199zM862 0h-909l70 315l555 713h-398l74 338h895l-68 -307l-561 -721h418z" />
    <glyph glyph-name="zcaron" unicode="&#x17e;" horiz-adv-x="874" 
d="M727 1139h-301l-92 295h190l80 -156l141 156h199zM711 0h-768l55 254l399 436h-303l68 299h760l-54 -241l-409 -447h317z" />
    <glyph glyph-name="longs" unicode="&#x17f;" horiz-adv-x="661" 
d="M379 0h-346l151 690h-125l68 299h123l10 45q78 352 391 352q81 0 155.5 -21.5t115.5 -61.5l-146 -222q-30 33 -78 33q-39 0 -62 -22.5t-30 -57.5z" />
    <glyph glyph-name="florin" unicode="&#x192;" horiz-adv-x="929" 
d="M279 -330h-396l176 795h-79v299h145l63 293q35 153 132 241t249 88q181 0 285 -81l-117 -287q-28 31 -75 31q-35 0 -60.5 -24t-36.5 -67l-43 -194h158v-299h-223z" />
    <glyph glyph-name="Ohorn" unicode="&#x1a0;" horiz-adv-x="1318" 
d="M623 -25q-259 0 -415.5 155t-156.5 400q0 129 30 253t91.5 233.5t147 192.5t204 131.5t254.5 48.5q146 0 263 -53.5t192 -149.5q77 43 104 96q-4 -2 -16 -2q-44 0 -74 29t-30 82q0 59 46 102t105 43q54 0 92.5 -36.5t38.5 -100.5q0 -84 -58.5 -167t-152.5 -136
q60 -117 60 -260q0 -129 -30 -253.5t-91.5 -234.5t-147 -193t-203.5 -131.5t-253 -48.5zM641 317q88 0 160.5 79t110.5 194t38 233q0 99 -52.5 161.5t-141.5 62.5q-88 0 -160 -79t-109.5 -194t-37.5 -233q0 -99 51.5 -161.5t140.5 -62.5z" />
    <glyph glyph-name="ohorn" unicode="&#x1a1;" horiz-adv-x="1052" 
d="M1161 1126q0 -83 -55.5 -165.5t-144.5 -133.5q65 -103 65 -245q0 -89 -24 -176.5t-72 -165t-113 -137t-152.5 -94t-185.5 -34.5q-220 0 -337 119.5t-117 313.5q0 111 39 219t107.5 194.5t172.5 139.5t225 53q201 0 322 -105q82 47 108 99q-4 -2 -16 -2q-44 0 -74 28.5
t-30 81.5q0 60 46 103t105 43q54 0 92.5 -36.5t38.5 -99.5zM496 281q54 0 97.5 53.5t63 119.5t19.5 124q0 131 -123 131q-53 0 -96 -53t-62.5 -119.5t-19.5 -122.5q0 -66 31.5 -99.5t89.5 -33.5z" />
    <glyph glyph-name="Uhorn" unicode="&#x1af;" horiz-adv-x="1331" 
d="M1657 1520q0 -101 -77 -194.5t-198 -139.5l-151 -684q-54 -252 -206.5 -389.5t-397.5 -137.5q-250 0 -393.5 123t-143.5 326q0 34 8 84l191 858h391l-193 -870q-6 -36 -6 -47q2 -56 44 -96t116 -40q159 0 199 183l192 870h391l-10 -47q62 43 82 82q-4 -2 -16 -2
q-44 0 -74.5 28.5t-30.5 81.5q0 59 46.5 102.5t105.5 43.5q54 0 92.5 -36t38.5 -99z" />
    <glyph glyph-name="uhorn" unicode="&#x1b0;" horiz-adv-x="1093" 
d="M1270 1163q0 -77 -48 -152.5t-130 -129.5l-195 -881h-346l27 115q-130 -140 -285 -140q-123 0 -194.5 62t-71.5 160q0 3 8 67l160 725h346l-131 -596q-7 -25 -7 -39q0 -35 25.5 -54t65.5 -19q69 0 137 86l139 622h287q33 27 49 58q-6 -3 -16 -3q-44 0 -74.5 29t-30.5 82
q0 59 47 102t105 43q55 0 94 -36.5t39 -100.5z" />
    <glyph glyph-name="AEacute" unicode="&#x1fc;" horiz-adv-x="1687" 
d="M1626 1776l-338 -295h-227l270 295h295zM1528 0h-862l39 176h-308l-108 -176h-430l944 1366h1026l-76 -338h-473l-37 -168h461l-76 -338h-459l-41 -184h474zM778 514l94 428l-262 -428h168z" />
    <glyph glyph-name="aeacute" unicode="&#x1fd;" horiz-adv-x="1626" 
d="M1405 1434l-338 -295h-227l270 295h295zM561 709q-55 0 -99 -50t-64.5 -116.5t-20.5 -128.5q0 -61 34 -97t89 -36q64 0 118 67l66 293q-40 68 -123 68zM911 117l-26 -117h-344l24 106q-106 -131 -241 -131q-143 0 -223.5 96.5t-80.5 278.5q0 84 17.5 173.5t56 177.5
t92 157.5t132 112.5t169.5 43q181 0 248 -133l25 108h344l-17 -76q108 104 226 101q291 -3 291 -381q0 -130 -33 -248h-592q0 -2 -1 -7.5t-1 -8.5q0 -12 11.5 -30t33.5 -37.5t63 -33.5t91 -14q103 0 178 55l104 -235q-62 -49 -136.5 -74t-141.5 -25q-198 0 -269 142z
M1022 612h274q0 4 1 13.5t1 13.5q0 40 -32.5 73t-89.5 33q-64 0 -103.5 -42t-50.5 -91z" />
    <glyph glyph-name="Oslashacute" unicode="&#x1fe;" horiz-adv-x="1318" 
d="M1313 1776l-338 -295h-227l270 295h295zM623 -25q-220 0 -365 111l-78 -86h-239l196 215q-86 133 -86 315q0 129 30 253t91.5 233.5t147 192.5t204 131.5t254.5 48.5q199 0 346 -101l72 78h240l-187 -203q99 -141 99 -327q0 -129 -30 -253.5t-91.5 -234.5t-147 -193
t-203.5 -131.5t-253 -48.5zM641 317q88 0 160.5 79t110.5 194t38 233v15l-436 -476q51 -45 127 -45zM756 1047q-87 0 -158.5 -77t-109 -189t-39.5 -228l419 457q-50 37 -112 37z" />
    <glyph glyph-name="oslashacute" unicode="&#x1ff;" horiz-adv-x="1052" 
d="M1108 1434l-338 -295h-227l270 295h295zM123 0h-201l166 162q-63 103 -63 246q0 111 39 219t107.5 194.5t172.5 139.5t225 53q180 0 297 -84l62 59h200l-165 -164q63 -104 63 -243q0 -89 -24 -176.5t-72 -165t-113 -137t-152.5 -94t-185.5 -34.5q-180 0 -297 84zM553 709
q-49 0 -89 -45t-61 -103t-26 -115l248 244q-29 19 -72 19zM496 281q71 0 119 82t59 178l-248 -244q29 -16 70 -16z" />
    <glyph glyph-name="Scommaaccent" unicode="&#x218;" horiz-adv-x="1075" 
d="M526 -246q0 -101 -75 -201.5t-191 -156.5l-88 90q131 62 170 133q-4 -2 -20 -2q-49 0 -84 32.5t-35 92.5q0 66 54 117t120 51q62 0 105.5 -41.5t43.5 -114.5zM506 -25q-174 0 -322 60t-231 160l223 280q54 -72 150.5 -118t195.5 -46q50 0 78.5 24t28.5 58q0 28 -36.5 56
t-91.5 51.5t-119 60.5t-119 79t-91.5 109.5t-36.5 149.5q0 95 37.5 183t104.5 156.5t169.5 109.5t223.5 41q138 0 268 -49.5t219 -139.5l-217 -278q-58 64 -141.5 98.5t-163.5 34.5q-42 0 -66 -22.5t-24 -53.5q0 -25 27 -48.5t70.5 -46t95.5 -48t104.5 -59.5t96 -75
t70.5 -101t27 -130q0 -102 -37.5 -193t-105.5 -158t-168 -106t-219 -39z" />
    <glyph glyph-name="scommaaccent" unicode="&#x219;" horiz-adv-x="892" 
d="M453 -246q0 -101 -75.5 -201.5t-191.5 -156.5l-88 90q131 62 170 133q-4 -2 -20 -2q-49 0 -84 32.5t-35 92.5q0 66 54 117t120 51q62 0 106 -41.5t44 -114.5zM397 -25q-132 0 -254.5 48t-195.5 122l180 220q44 -49 125.5 -90.5t159.5 -41.5q35 0 56 14t21 36t-30 41
t-74.5 33t-97 38t-97 53t-74.5 82t-30 121q0 70 27 134.5t77 116t130 82t178 30.5q115 0 223.5 -40t185.5 -114l-166 -213q-35 39 -104 74t-137 35q-36 0 -56 -14t-20 -35q0 -18 30.5 -34.5t76 -30t98.5 -38t98.5 -55t76 -84t30.5 -121.5q0 -155 -119 -262t-318 -107z" />
    <glyph glyph-name="uni021A" unicode="&#x21a;" 
d="M512 -246q0 -101 -75 -201.5t-191 -156.5l-88 90q131 62 170 133q-4 -2 -21 -2q-49 0 -84 32.5t-35 92.5q0 66 54 117t120 51q62 0 106 -41.5t44 -114.5zM598 0h-389l227 1028h-282l73 338h953l-76 -338h-281z" />
    <glyph glyph-name="uni021B" unicode="&#x21b;" horiz-adv-x="679" 
d="M324 -246q0 -101 -75.5 -201.5t-191.5 -156.5l-88 90q131 62 170 133q-4 -2 -20 -2q-49 0 -84 32.5t-35 92.5q0 66 54 117t120 51q62 0 106 -41.5t44 -114.5zM414 -25q-155 0 -241.5 58t-86.5 172q0 44 10 90l88 395h-125l68 299h125l59 271h346l-59 -271h158l-68 -299
h-158l-67 -301q-4 -32 -4 -43q0 -65 69 -65q31 0 43 12l-4 -285q-54 -33 -153 -33z" />
    <glyph glyph-name="uni0237" unicode="&#x237;" horiz-adv-x="520" 
d="M-94 -401q-167 0 -242 63l123 252q25 -29 80 -29q83 0 110 123l220 981h346l-219 -981q-21 -97 -51.5 -168.5t-79 -127.5t-120.5 -84.5t-167 -28.5z" />
    <glyph glyph-name="hsuperior" unicode="&#x2b0;" horiz-adv-x="776" 
d="M743 668h-243l84 379q4 20 4 30q0 45 -58 45q-40 0 -90 -57l-88 -397h-243l194 888h246l-70 -317q76 88 187 88q86 0 136 -40.5t50 -110.5q0 -21 -6 -48z" />
    <glyph glyph-name="uni02BC" unicode="&#x2bc;" horiz-adv-x="567" 
d="M651 1182q0 -133 -99 -266t-251 -205l-117 120q66 28 131 74.5t93 98.5q-12 -3 -27 -3q-67 0 -112.5 42.5t-45.5 123.5q0 89 71 154t159 65q82 0 140 -54t58 -150z" />
    <glyph glyph-name="circumflex" unicode="&#x2c6;" horiz-adv-x="610" 
d="M752 1139h-191l-80 155l-141 -155h-199l217 295h301z" />
    <glyph glyph-name="caron" unicode="&#x2c7;" horiz-adv-x="610" 
d="M600 1139h-301l-92 295h190l80 -156l141 156h199z" />
    <glyph glyph-name="uni02C9" unicode="&#x2c9;" horiz-adv-x="647" 
d="M803 1210h-645l41 189h645z" />
    <glyph glyph-name="uni02CB" unicode="&#x2cb;" horiz-adv-x="495" 
d="M637 1139h-221l-209 295h291z" />
    <glyph glyph-name="breve" unicode="&#x2d8;" horiz-adv-x="624" 
d="M786 1245q-70 -74 -160 -116t-184 -42t-166.5 42t-111.5 116l168 117q42 -86 143 -86q102 0 182 86z" />
    <glyph glyph-name="dotaccent" unicode="&#x2d9;" horiz-adv-x="458" 
d="M575 1284q0 -75 -60.5 -133.5t-135.5 -58.5q-66 0 -110 44t-44 109q0 76 60 134.5t137 58.5q65 0 109 -44t44 -110z" />
    <glyph glyph-name="ring" unicode="&#x2da;" horiz-adv-x="419" 
d="M360 1071q-84 0 -137 54t-53 139q0 94 69.5 163.5t163.5 69.5q86 0 138.5 -52.5t52.5 -137.5q0 -95 -69.5 -165.5t-164.5 -70.5zM379 1217q28 0 50 22t22 51q0 28 -17 46t-45 18q-29 0 -50.5 -22.5t-21.5 -51.5q0 -28 17 -45.5t45 -17.5z" />
    <glyph glyph-name="ogonek" unicode="&#x2db;" horiz-adv-x="393" 
d="M113 -199l108 -88q-76 -94 -184 -94q-83 0 -139 40t-56 116q0 47 17.5 94.5t68 103.5t129.5 101l107 -74q-76 -41 -119 -95t-43 -110q0 -43 45 -43q39 0 66 49z" />
    <glyph glyph-name="tilde" unicode="&#x2dc;" horiz-adv-x="643" 
d="M592 1135q-44 0 -77.5 15.5t-50 33.5t-39 33.5t-46.5 15.5q-45 0 -62 -86h-174q29 137 88 205.5t162 68.5q44 0 77.5 -15.5t50.5 -33.5t40 -33.5t47 -15.5q42 0 62 86h174q-30 -137 -90 -205.5t-162 -68.5z" />
    <glyph glyph-name="hungarumlaut" unicode="&#x2dd;" horiz-adv-x="690" 
d="M594 1434l-268 -295h-189l201 295h256zM897 1434l-268 -295h-189l201 295h256z" />
    <glyph glyph-name="hookabovecomb" unicode="&#x309;" horiz-adv-x="393" 
d="M477 1477l-102 39q48 102 164 102q63 0 106 -32t43 -93q0 -62 -45 -127h-133q45 51 51 100q3 47 -35 47q-30 0 -49 -36z" />
    <glyph glyph-name="uni037E" unicode="&#x37e;" horiz-adv-x="567" 
d="M430 186q0 -134 -98.5 -266.5t-251.5 -204.5l-117 121q65 26 130 72.5t93 99.5q-6 -2 -24 -2q-67 0 -112.5 42.5t-45.5 123.5q0 89 70.5 154t158.5 65q81 0 139 -54.5t58 -150.5zM328 588q-78 0 -133.5 56t-55.5 134q0 92 68 160t160 68q78 0 133 -57.5t55 -135.5
q0 -92 -67.5 -158.5t-159.5 -66.5z" />
    <glyph glyph-name="tonos" unicode="&#x384;" horiz-adv-x="1095" 
d="M520 1114h-143l147 453h262z" />
    <glyph glyph-name="dieresistonos" unicode="&#x385;" horiz-adv-x="1095" 
d="M719 1114h-146l148 453h264zM1227 1282q0 -75 -61 -133.5t-136 -58.5q-66 0 -109.5 44t-43.5 109q0 76 59.5 134.5t136.5 58.5q66 0 110 -44t44 -110zM567 1282q0 -75 -59.5 -133.5t-134.5 -58.5q-66 0 -110 44t-44 109q0 76 60 134.5t137 58.5q65 0 108 -44t43 -110z
" />
    <glyph glyph-name="Alphatonos" unicode="&#x386;" horiz-adv-x="1222" 
d="M324 1114h-144l148 453h262zM1137 0h-406v176h-354l-78 -176h-434l702 1366h469zM731 514l-2 453l-201 -453h203z" />
    <glyph glyph-name="Epsilontonos" unicode="&#x388;" horiz-adv-x="1163" 
d="M260 1114h-143l147 453h262zM987 0h-864l303 1366h862l-76 -338h-473l-37 -168h461l-76 -338h-460l-39 -184h473z" />
    <glyph glyph-name="Etatonos" unicode="&#x389;" horiz-adv-x="1452" 
d="M260 1114h-143l147 453h262zM1243 0h-387l117 535h-344l-117 -535h-389l303 1366h387l-108 -494h344l108 494h387z" />
    <glyph glyph-name="Iotatonos" unicode="&#x38a;" horiz-adv-x="720" 
d="M260 1114h-143l147 453h262zM512 0h-389l303 1366h387z" />
    <glyph glyph-name="Omicrontonos" unicode="&#x38c;" horiz-adv-x="1355" 
d="M258 1114h-143l147 453h262zM659 -25q-259 0 -415 155t-156 400q0 129 30 253t91.5 233.5t147 192.5t204 131.5t254.5 48.5q256 0 412.5 -155.5t156.5 -397.5q0 -129 -30 -253.5t-91.5 -234.5t-147 -193t-203.5 -131.5t-253 -48.5zM678 317q88 0 160.5 79t110.5 194
t38 233q0 99 -52.5 161.5t-141.5 62.5q-88 0 -160.5 -79t-110 -194t-37.5 -233q0 -99 52 -161.5t141 -62.5z" />
    <glyph glyph-name="Upsilontonos" unicode="&#x38e;" horiz-adv-x="1421" 
d="M258 1114h-143l147 453h262zM915 0h-389l121 547l-241 819h405l90 -467l295 467h440l-602 -819z" />
    <glyph glyph-name="Omegatonos" unicode="&#x38f;" horiz-adv-x="1374" 
d="M258 1114h-143l147 453h262zM88 338h221q-71 64 -118.5 161.5t-47.5 221.5q0 90 27.5 183t85 180t136.5 155t191 109t240 41q121 0 227.5 -31.5t189 -92t130 -156.5t47.5 -216q0 -93 -26.5 -180.5t-72.5 -156.5t-99.5 -123t-114.5 -95h172l-76 -338h-518l76 338
q58 27 107.5 89t79 134t45.5 142t16 122q0 101 -49 160t-148 59q-66 0 -124 -48.5t-95 -123t-58.5 -160.5t-21.5 -165q0 -75 22.5 -125.5t73.5 -83.5l-76 -338h-518z" />
    <glyph glyph-name="iotadieresistonos" unicode="&#x390;" horiz-adv-x="550" 
d="M446 1114h-145l148 453h264zM954 1282q0 -75 -60.5 -133.5t-135.5 -58.5q-66 0 -110 44t-44 109q0 76 60 134.5t137 58.5q66 0 109.5 -44t43.5 -110zM295 1282q0 -75 -60 -133.5t-135 -58.5q-66 0 -109.5 44t-43.5 109q0 76 59.5 134.5t136.5 58.5q65 0 108.5 -44
t43.5 -110zM279 -25q-156 0 -215 75t-25 226l160 713h346l-146 -649q-6 -28 5.5 -43.5t37.5 -15.5q23 0 35 6l-41 -291q-68 -21 -157 -21z" />
    <glyph glyph-name="Alpha" unicode="&#x391;" horiz-adv-x="1222" 
d="M1137 0h-406v176h-354l-78 -176h-434l702 1366h469zM731 514l-2 453l-201 -453h203z" />
    <glyph glyph-name="Beta" unicode="&#x392;" horiz-adv-x="1228" 
d="M711 0h-725l303 1366h600q94 0 168.5 -27.5t120 -74t69 -104t23.5 -120.5q0 -134 -88 -242t-215 -120q91 -25 138.5 -98t47.5 -166q0 -58 -14.5 -114t-48.5 -111t-84 -96.5t-126 -67t-169 -25.5zM565 856h187q51 0 78.5 32t27.5 77q0 33 -22 52t-64 19h-166zM645 330
q54 0 88.5 32t34.5 84q0 37 -22.5 58.5t-61.5 21.5h-192l-43 -196h196z" />
    <glyph glyph-name="Gamma" unicode="&#x393;" horiz-adv-x="1015" 
d="M375 0h-389l303 1366h862l-76 -338h-473z" />
    <glyph glyph-name="uni0394" unicode="&#x394;" horiz-adv-x="1222" 
d="M1137 0h-1272l702 1366h469zM731 338l-4 629l-276 -629h280z" />
    <glyph glyph-name="Epsilon" unicode="&#x395;" 
d="M850 0h-864l303 1366h862l-76 -338h-473l-37 -168h461l-76 -338h-461l-38 -184h473z" />
    <glyph glyph-name="Zeta" unicode="&#x396;" horiz-adv-x="1036" 
d="M862 0h-909l70 315l555 713h-398l74 338h895l-68 -307l-561 -721h418z" />
    <glyph glyph-name="Eta" unicode="&#x397;" horiz-adv-x="1314" 
d="M1106 0h-387l117 535h-344l-117 -535h-389l303 1366h387l-109 -494h344l109 494h387z" />
    <glyph glyph-name="Theta" unicode="&#x398;" horiz-adv-x="1318" 
d="M827 522h-331l75 338h330zM623 -25q-259 0 -415.5 155t-156.5 400q0 129 30 253t91.5 233.5t147 192.5t204 131.5t254.5 48.5q256 0 413 -155.5t157 -397.5q0 -129 -30 -253.5t-91.5 -234.5t-147 -193t-203.5 -131.5t-253 -48.5zM641 317q88 0 160.5 79t110.5 194t38 233
q0 99 -52.5 161.5t-141.5 62.5q-88 0 -160 -79t-109.5 -194t-37.5 -233q0 -99 51.5 -161.5t140.5 -62.5z" />
    <glyph glyph-name="Iota" unicode="&#x399;" horiz-adv-x="583" 
d="M375 0h-389l303 1366h387z" />
    <glyph glyph-name="Kappa" unicode="&#x39a;" horiz-adv-x="1224" 
d="M1137 0h-430l-144 475l-114 -145l-74 -330h-389l303 1366h387l-109 -496l379 496h469l-557 -635z" />
    <glyph glyph-name="Lambda" unicode="&#x39b;" horiz-adv-x="1222" 
d="M1137 0h-406l-2 967l-430 -967h-434l702 1366h469z" />
    <glyph glyph-name="Mu" unicode="&#x39c;" horiz-adv-x="1613" 
d="M1405 0h-385l162 739l-412 -739h-147l-86 739l-162 -739h-389l303 1366h497l66 -602l338 602h516z" />
    <glyph glyph-name="Nu" unicode="&#x39d;" horiz-adv-x="1312" 
d="M1104 0h-367l-221 639l-141 -639h-389l303 1366h393l205 -598l131 598h387z" />
    <glyph glyph-name="Xi" unicode="&#x39e;" horiz-adv-x="1087" 
d="M1137 1028h-951l74 338h952zM913 0h-952l76 338h950zM1012 522h-924l76 338h921z" />
    <glyph glyph-name="Omicron" unicode="&#x39f;" horiz-adv-x="1318" 
d="M623 -25q-259 0 -415.5 155t-156.5 400q0 129 30 253t91.5 233.5t147 192.5t204 131.5t254.5 48.5q256 0 413 -155.5t157 -397.5q0 -129 -30 -253.5t-91.5 -234.5t-147 -193t-203.5 -131.5t-253 -48.5zM641 317q88 0 160.5 79t110.5 194t38 233q0 99 -52.5 161.5
t-141.5 62.5q-88 0 -160 -79t-109.5 -194t-37.5 -233q0 -99 51.5 -161.5t140.5 -62.5z" />
    <glyph glyph-name="Pi" unicode="&#x3a0;" horiz-adv-x="1314" 
d="M1106 0h-387l225 1028h-342l-227 -1028h-389l303 1366h1118z" />
    <glyph glyph-name="Rho" unicode="&#x3a1;" horiz-adv-x="1185" 
d="M375 0h-389l303 1366h571q171 0 282 -113.5t111 -279.5q0 -74 -19 -146t-63.5 -142.5t-109 -123.5t-165 -86t-222.5 -33h-201zM547 780h153q63 0 107.5 44t44.5 106q0 46 -27.5 72t-74.5 26h-148z" />
    <glyph glyph-name="Sigma" unicode="&#x3a3;" horiz-adv-x="1019" 
d="M649 1028l217 -342l-370 -348h424l-76 -338h-864l86 387l368 352l-215 332l66 295h860l-74 -338h-422z" />
    <glyph glyph-name="Tau" unicode="&#x3a4;" 
d="M598 0h-389l227 1028h-282l73 338h953l-76 -338h-281z" />
    <glyph glyph-name="Upsilon" unicode="&#x3a5;" horiz-adv-x="1181" 
d="M676 0h-389l121 547l-242 819h405l91 -467l294 467h441l-602 -819z" />
    <glyph glyph-name="Phi" unicode="&#x3a6;" horiz-adv-x="1669" 
d="M918 0h-388l33 150q-255 38 -376 159.5t-121 333.5q0 151 89 277.5t259 208.5t395 100l33 137h387l-35 -152q256 -37 378 -158t122 -335q0 -230 -203.5 -395t-542.5 -191zM1290 723q0 114 -174 151l-88 -387q262 50 262 236zM469 643q0 -117 172 -154l88 385
q-260 -47 -260 -231z" />
    <glyph glyph-name="Chi" unicode="&#x3a7;" horiz-adv-x="1222" 
d="M1137 0h-424l-119 383l-268 -383h-461l559 721l-234 645h422l101 -356l237 356h463l-528 -686z" />
    <glyph glyph-name="Psi" unicode="&#x3a8;" horiz-adv-x="1744" 
d="M956 0h-387l62 272q-226 37 -345.5 146t-119.5 289q0 69 16 151l117 508h393l-129 -559q-6 -27 -6 -49q0 -107 152 -146l172 754h387l-172 -752q195 48 229 193l129 559h393l-143 -629q-44 -193 -232.5 -322.5t-455.5 -154.5z" />
    <glyph glyph-name="uni03A9" unicode="&#x3a9;" horiz-adv-x="1316" 
d="M29 338h221q-71 64 -118.5 161.5t-47.5 221.5q0 90 27.5 183t85 180t136.5 155t191 109t240 41q121 0 227.5 -31.5t189 -92t130 -156.5t47.5 -216q0 -93 -27 -180.5t-73 -156.5t-99.5 -123t-114.5 -95h173l-76 -338h-518l75 338q58 27 107.5 89t79 134t45.5 142t16 122
q0 101 -48.5 160t-147.5 59q-66 0 -124 -48.5t-95 -123t-58.5 -160.5t-21.5 -165q0 -75 22.5 -125.5t73.5 -83.5l-76 -338h-518z" />
    <glyph glyph-name="Iotadieresis" unicode="&#x3aa;" horiz-adv-x="583" 
d="M375 0h-389l303 1366h387zM924 1659q0 -75 -61 -134t-136 -59q-66 0 -110 44.5t-44 109.5q0 76 60 134t137 58q65 0 109.5 -43.5t44.5 -109.5zM512 1659q0 -75 -60 -134t-135 -59q-66 0 -109.5 44.5t-43.5 109.5q0 76 59 134t135 58q66 0 110 -43.5t44 -109.5z" />
    <glyph glyph-name="Upsilondieresis" unicode="&#x3ab;" horiz-adv-x="1181" 
d="M676 0h-389l121 547l-242 819h405l91 -467l294 467h441l-602 -819zM1227 1659q0 -75 -61 -134t-136 -59q-66 0 -109.5 44.5t-43.5 109.5q0 76 59.5 134t136.5 58q65 0 109.5 -43.5t44.5 -109.5zM815 1659q0 -75 -59.5 -134t-134.5 -59q-66 0 -110 44.5t-44 109.5
q0 76 59.5 134t135.5 58q66 0 109.5 -43.5t43.5 -109.5z" />
    <glyph glyph-name="alphatonos" unicode="&#x3ac;" horiz-adv-x="1114" 
d="M735 1114h-143l147 453h262zM1040 287l-41 -291q-68 -21 -157 -21q-121 0 -179 42.5t-71 123.5q-72 -93 -134.5 -129.5t-133.5 -36.5q-142 0 -223 99t-81 276q0 84 17.5 173.5t56 177.5t92 157.5t132 112.5t169.5 43q181 0 248 -133l27 108h342l-143 -649
q-6 -28 6.5 -43.5t38.5 -15.5q19 0 34 6zM500 281q64 0 118 67l66 293q-40 68 -123 68q-55 0 -99 -50t-64.5 -116.5t-20.5 -128.5q0 -61 34 -97t89 -36z" />
    <glyph glyph-name="epsilontonos" unicode="&#x3ad;" horiz-adv-x="919" 
d="M678 1114h-143l147 453h262zM383 -25q-197 0 -301.5 71t-104.5 190q0 72 47 134t116.5 97.5t142.5 42.5q-86 14 -134.5 68.5t-48.5 123.5q0 138 135.5 225t350.5 87q124 0 230 -42.5t171 -113.5l-194 -190q-86 80 -215 80q-65 0 -104.5 -18t-39.5 -50q0 -49 103 -49h178
l-60 -264h-184q-63 0 -100 -19t-37 -53q0 -51 100 -51q75 0 154 23.5t139 66.5l115 -215q-199 -144 -459 -144z" />
    <glyph glyph-name="etatonos" unicode="&#x3ae;" horiz-adv-x="1095" 
d="M748 1114h-144l148 453h262zM813 -377h-346l217 975q4 24 4 39q0 35 -25 53.5t-65 18.5q-68 0 -137 -86l-137 -623h-349l222 989h346l-29 -115q130 140 287 140q123 0 193.5 -61.5t70.5 -159.5q0 -38 -8 -66z" />
    <glyph glyph-name="iotatonos" unicode="&#x3af;" horiz-adv-x="550" 
d="M467 1114h-143l147 453h262zM279 -25q-156 0 -215 75t-25 226l160 713h346l-146 -649q-6 -28 5.5 -43.5t37.5 -15.5q23 0 35 6l-41 -291q-68 -21 -157 -21z" />
    <glyph glyph-name="upsilondieresistonos" unicode="&#x3b0;" horiz-adv-x="1075" 
d="M733 1114h-145l147 453h264zM1241 1282q0 -75 -61 -133.5t-136 -58.5q-66 0 -109.5 44t-43.5 109q0 76 59.5 134.5t136.5 58.5q66 0 110 -44t44 -110zM582 1282q0 -75 -60 -133.5t-135 -58.5q-66 0 -110 44t-44 109q0 76 60 134.5t137 58.5q65 0 108.5 -44t43.5 -110z
M459 -25q-138 0 -236 52t-140.5 152t-12.5 233l129 577h346l-129 -573q-12 -61 9.5 -98t74.5 -37q62 0 112 58t76.5 149.5t26.5 195.5q0 135 -25 211l350 119q39 -105 39 -283q0 -122 -25.5 -234t-77 -207.5t-124.5 -165.5t-174 -109.5t-219 -39.5z" />
    <glyph glyph-name="alpha" unicode="&#x3b1;" horiz-adv-x="1114" 
d="M1040 287l-41 -291q-68 -21 -157 -21q-121 0 -179 42.5t-71 123.5q-72 -93 -134.5 -129.5t-133.5 -36.5q-142 0 -223 99t-81 276q0 84 17.5 173.5t56 177.5t92 157.5t132 112.5t169.5 43q181 0 248 -133l27 108h342l-143 -649q-6 -28 6.5 -43.5t38.5 -15.5q19 0 34 6z
M500 281q64 0 118 67l66 293q-40 68 -123 68q-55 0 -99 -50t-64.5 -116.5t-20.5 -128.5q0 -61 34 -97t89 -36z" />
    <glyph glyph-name="beta" unicode="&#x3b2;" horiz-adv-x="1083" 
d="M612 -25q-179 0 -266 127l-106 -479h-349l291 1299q23 100 68 180t101 132t124 87t135 50t135 15q193 0 297.5 -80.5t104.5 -230.5q0 -124 -88 -232t-232 -138q201 -68 201 -275q0 -91 -36 -176t-94 -145.5t-133.5 -97t-152.5 -36.5zM528 920l-127 -574q35 -65 119 -65
q71 0 114.5 49.5t43.5 111.5q0 44 -24 68.5t-70 24.5h-60l68 307h47q67 0 101 48t34 109q0 80 -86 80q-58 0 -100.5 -41t-59.5 -118z" />
    <glyph glyph-name="gamma" unicode="&#x3b3;" horiz-adv-x="993" 
d="M475 -377h-346l39 176q50 225 52 449t-37 410t-113 331h379q46 -130 65.5 -278.5t1.5 -286.5q60 98 123.5 260.5t95.5 304.5h346q-53 -238 -202.5 -509.5t-317.5 -461.5z" />
    <glyph glyph-name="delta" unicode="&#x3b4;" horiz-adv-x="1052" 
d="M457 -25q-113 0 -199.5 32.5t-138 90.5t-77.5 132t-26 161q0 152 80.5 271t210.5 202q-59 69 -59 174q0 70 33.5 133.5t93 112.5t150.5 78t198 29q229 0 371 -125l-185 -240q-32 37 -94.5 66.5t-134.5 29.5q-40 0 -68 -14.5t-28 -36.5q0 -17 24.5 -33t63.5 -33
t86.5 -39.5t95 -59t86.5 -83.5t63.5 -120.5t24.5 -163.5q0 -94 -40.5 -192.5t-112 -181.5t-182 -136.5t-236.5 -53.5zM694 504q0 70 -38 117t-107 86q-77 -51 -124.5 -126t-47.5 -153q0 -67 34 -107t99 -40q75 0 129.5 70.5t54.5 152.5z" />
    <glyph glyph-name="epsilon" unicode="&#x3b5;" horiz-adv-x="919" 
d="M383 -25q-197 0 -301.5 71t-104.5 190q0 72 47 134t116.5 97.5t142.5 42.5q-86 14 -134.5 68.5t-48.5 123.5q0 138 135.5 225t350.5 87q124 0 230 -42.5t171 -113.5l-194 -190q-86 80 -215 80q-65 0 -104.5 -18t-39.5 -50q0 -49 103 -49h178l-60 -264h-184
q-63 0 -100 -19t-37 -53q0 -51 100 -51q75 0 154 23.5t139 66.5l115 -215q-199 -144 -459 -144z" />
    <glyph glyph-name="zeta" unicode="&#x3b6;" horiz-adv-x="874" 
d="M397 -47q0 22 -26 22q-168 0 -268.5 96t-100.5 253q0 199 144 396t403 347h-367l70 299h762l-56 -242q-104 -62 -206.5 -147t-187.5 -180t-138 -198t-53 -189q0 -129 147 -129q232 0 232 -175q0 -157 -199 -428h-338q67 71 124.5 153.5t57.5 121.5z" />
    <glyph glyph-name="eta" unicode="&#x3b7;" horiz-adv-x="1095" 
d="M813 -377h-346l217 975q4 24 4 39q0 35 -25 53.5t-65 18.5q-68 0 -137 -86l-137 -623h-349l222 989h346l-29 -115q130 140 287 140q123 0 193.5 -61.5t70.5 -159.5q0 -38 -8 -66z" />
    <glyph glyph-name="theta" unicode="&#x3b8;" horiz-adv-x="1052" 
d="M479 -25q-193 0 -312.5 139.5t-119.5 393.5q0 138 30 270.5t86.5 242.5t131.5 193.5t170.5 130t198.5 46.5q193 0 311.5 -139t118.5 -392q0 -174 -47.5 -336t-128.5 -283t-196 -193.5t-243 -72.5zM500 281q93 0 176 256h-279q-8 -55 -8 -107q0 -149 111 -149zM641 1085
q-93 0 -176 -249h276q9 88 9 102q0 147 -109 147z" />
    <glyph glyph-name="iota" unicode="&#x3b9;" horiz-adv-x="550" 
d="M279 -25q-156 0 -215 75t-25 226l160 713h346l-146 -649q-6 -28 5.5 -43.5t37.5 -15.5q23 0 35 6l-41 -291q-68 -21 -157 -21z" />
    <glyph glyph-name="kappa" unicode="&#x3ba;" 
d="M934 0h-397l-68 336l-98 -119l-47 -217h-349l222 989h346l-78 -340l258 340h410l-379 -442z" />
    <glyph glyph-name="lambda" unicode="&#x3bb;" horiz-adv-x="993" 
d="M272 1071l19 303q59 17 143 17q79 -1 134 -13t100.5 -41.5t72 -84t37.5 -136.5l127 -1116h-356l-23 573l-282 -573h-377l567 1008l-4 34q-8 43 -94 43q-39 0 -64 -14z" />
    <glyph glyph-name="uni03BC" unicode="&#x3bc;" horiz-adv-x="1124" 
d="M322 -8l-82 -369h-349l308 1366h346l-135 -600q-11 -51 9.5 -79.5t67.5 -28.5q77 0 146 86l137 622h346l-143 -649q-6 -28 5.5 -43.5t37.5 -15.5q23 0 35 6l-41 -291q-68 -21 -158 -21q-117 0 -173 43t-65 138q-38 -84 -98.5 -132.5t-124.5 -48.5q-45 0 -69 17z" />
    <glyph glyph-name="nu" unicode="&#x3bd;" horiz-adv-x="993" 
d="M547 0h-344l-113 989h365l24 -624q86 126 153.5 296.5t102.5 327.5h346q-55 -243 -209 -521t-325 -468z" />
    <glyph glyph-name="xi" unicode="&#x3be;" horiz-adv-x="874" 
d="M371 -25q-181 0 -282 81t-101 223q0 120 77 209.5t211 138.5q-74 13 -112.5 61t-38.5 121q0 71 63 145t160 113h-143l67 299h738l-68 -299h-334q-48 -19 -78 -55.5t-30 -79.5q0 -94 135 -94h246l-66 -299h-248q-89 0 -145.5 -41t-56.5 -115q0 -48 39 -75t116 -27
q232 0 232 -175q0 -157 -199 -428h-328q172 214 172 275q0 22 -26 22z" />
    <glyph glyph-name="omicron" unicode="&#x3bf;" horiz-adv-x="1052" 
d="M479 -25q-220 0 -337 119.5t-117 313.5q0 111 39 219t107.5 194.5t172.5 139.5t225 53q221 0 339 -119t118 -313q0 -89 -24 -176.5t-72 -165t-113 -137t-152.5 -94t-185.5 -34.5zM496 281q54 0 97.5 53.5t63 119.5t19.5 124q0 131 -123 131q-53 0 -96 -53t-62.5 -119.5
t-19.5 -122.5q0 -66 31.5 -99.5t89.5 -33.5z" />
    <glyph glyph-name="pi" unicode="&#x3c0;" horiz-adv-x="1206" 
d="M952 0h-346l156 690h-230l-153 -690h-346l153 690h-125l68 299h1169l-67 -299h-125z" />
    <glyph glyph-name="rho" unicode="&#x3c1;" horiz-adv-x="1081" 
d="M596 -25q-82 0 -149 34t-101 100l-106 -486h-349l195 873q54 239 200.5 378.5t364.5 139.5q192 0 301 -110t109 -302q0 -73 -17.5 -155.5t-56 -167t-91.5 -152t-131.5 -110t-168.5 -42.5zM520 281q55 0 99 50t65 116t21 128q0 61 -30 97.5t-77 36.5q-118 0 -166 -213
l-33 -146q17 -33 49.5 -51t71.5 -18z" />
    <glyph glyph-name="sigma1" unicode="&#x3c2;" horiz-adv-x="892" 
d="M389 -25q-65 0 -129.5 30.5t-117 84.5t-85 137t-32.5 179q0 121 41.5 232t113 194t175.5 132.5t223 49.5q124 0 218.5 -43t145.5 -111l-209 -225q-48 74 -141 74q-92 0 -153.5 -80t-61.5 -191q0 -157 182 -157q97 0 150 -48.5t53 -132.5q0 -154 -197 -422h-338
q63 61 123 148t60 127q0 22 -21 22z" />
    <glyph glyph-name="sigma" unicode="&#x3c3;" horiz-adv-x="1052" 
d="M993 508q0 -72 -22 -146.5t-66 -144t-104.5 -123.5t-144 -86.5t-177.5 -32.5q-220 0 -337 119.5t-117 313.5q0 116 42 221.5t117 185t186 127t240 47.5h523l-68 -305h-123q51 -68 51 -176zM674 569q0 79 -29 115h-70q-90 0 -145 -81.5t-55 -188.5q0 -66 31.5 -99.5
t89.5 -33.5q41 0 76.5 31t56.5 76.5t33 93.5t12 87z" />
    <glyph glyph-name="tau" unicode="&#x3c4;" horiz-adv-x="858" 
d="M449 -25q-156 0 -215 75t-25 226l92 414h-227l67 299h797l-68 -299h-225l-72 -325q-8 -38 3.5 -61t41.5 -23q48 0 66 18l-2 -268q-36 -25 -98 -40.5t-135 -15.5z" />
    <glyph glyph-name="upsilon" unicode="&#x3c5;" horiz-adv-x="1075" 
d="M459 -25q-138 0 -236 52t-140.5 152t-12.5 233l129 577h346l-129 -573q-12 -61 9.5 -98t74.5 -37q62 0 112 58t76.5 149.5t26.5 195.5q0 135 -25 211l350 119q39 -105 39 -283q0 -122 -25.5 -234t-77 -207.5t-124.5 -165.5t-174 -109.5t-219 -39.5z" />
    <glyph glyph-name="phi" unicode="&#x3c6;" horiz-adv-x="1570" 
d="M1552 563q0 -109 -47.5 -208t-136 -178t-223.5 -131t-301 -66l-80 -357h-346l82 367q-477 67 -477 450q0 184 125 330.5t364 243.5l90 -269q-98 -40 -157.5 -112t-59.5 -152q0 -77 44 -123t138 -65l162 721h170q325 0 489 -118.5t164 -332.5zM1004 696l-91 -401
q143 25 209 86t66 143q0 147 -184 172z" />
    <glyph glyph-name="chi" unicode="&#x3c7;" horiz-adv-x="962" 
d="M784 -377h-362l-43 363l-211 -363h-381l436 694l-114 672h360l37 -340l188 340h379l-416 -672z" />
    <glyph glyph-name="psi" unicode="&#x3c8;" horiz-adv-x="1570" 
d="M764 -377h-346l82 371q-203 34 -311.5 135.5t-108.5 267.5q0 67 16 140l103 452h344l-109 -489q-6 -27 -6 -56q0 -107 141 -145l240 1067h346l-240 -1067q190 49 224 201l110 489h344l-118 -534q-45 -199 -215 -324t-416 -149z" />
    <glyph glyph-name="omega" unicode="&#x3c9;" horiz-adv-x="1632" 
d="M1618 639q0 -99 -24 -195.5t-70.5 -181t-110.5 -149t-150.5 -101.5t-183.5 -37q-133 0 -219.5 66t-101.5 190q-72 -130 -164 -193t-217 -63q-162 0 -262.5 113t-100.5 277q0 195 98.5 365.5t249.5 283.5l226 -185q-101 -85 -157 -199.5t-56 -217.5q0 -59 24 -95t68 -36
q64 0 108.5 58t67.5 157l55 247h346l-55 -247q-24 -95 -4 -155t84 -60q49 0 93 49t68.5 121t24.5 143q0 148 -61 235l307 185q53 -59 85 -159.5t32 -215.5z" />
    <glyph glyph-name="iotadieresis" unicode="&#x3ca;" horiz-adv-x="550" 
d="M815 1282q0 -75 -61 -133.5t-136 -58.5q-66 0 -109.5 44t-43.5 109q0 76 60 134.5t137 58.5q65 0 109 -44t44 -110zM403 1282q0 -75 -59.5 -133.5t-134.5 -58.5q-66 0 -110 44t-44 109q0 76 59.5 134.5t135.5 58.5q66 0 109.5 -44t43.5 -110zM279 -25q-156 0 -215 75
t-25 226l160 713h346l-146 -649q-6 -28 5.5 -43.5t37.5 -15.5q23 0 35 6l-41 -291q-68 -21 -157 -21z" />
    <glyph glyph-name="upsilondieresis" unicode="&#x3cb;" horiz-adv-x="1075" 
d="M1102 1282q0 -75 -61 -133.5t-136 -58.5q-66 0 -109.5 44t-43.5 109q0 76 59.5 134.5t136.5 58.5q65 0 109.5 -44t44.5 -110zM690 1282q0 -75 -59.5 -133.5t-134.5 -58.5q-66 0 -110 44t-44 109q0 76 59.5 134.5t135.5 58.5q66 0 109.5 -44t43.5 -110zM459 -25
q-138 0 -236 52t-140.5 152t-12.5 233l129 577h346l-129 -573q-12 -61 9.5 -98t74.5 -37q62 0 112 58t76.5 149.5t26.5 195.5q0 135 -25 211l350 119q39 -105 39 -283q0 -122 -25.5 -234t-77 -207.5t-124.5 -165.5t-174 -109.5t-219 -39.5z" />
    <glyph glyph-name="omicrontonos" unicode="&#x3cc;" horiz-adv-x="1052" 
d="M729 1114h-143l147 453h262zM479 -25q-220 0 -337 119.5t-117 313.5q0 111 39 219t107.5 194.5t172.5 139.5t225 53q221 0 339 -119t118 -313q0 -89 -24 -176.5t-72 -165t-113 -137t-152.5 -94t-185.5 -34.5zM496 281q54 0 97.5 53.5t63 119.5t19.5 124q0 131 -123 131
q-53 0 -96 -53t-62.5 -119.5t-19.5 -122.5q0 -66 31.5 -99.5t89.5 -33.5z" />
    <glyph glyph-name="upsilontonos" unicode="&#x3cd;" horiz-adv-x="1075" 
d="M750 1114h-144l148 453h262zM459 -25q-138 0 -236 52t-140.5 152t-12.5 233l129 577h346l-129 -573q-12 -61 9.5 -98t74.5 -37q62 0 112 58t76.5 149.5t26.5 195.5q0 135 -25 211l350 119q39 -105 39 -283q0 -122 -25.5 -234t-77 -207.5t-124.5 -165.5t-174 -109.5
t-219 -39.5z" />
    <glyph glyph-name="omegatonos" unicode="&#x3ce;" horiz-adv-x="1632" 
d="M1020 1114h-143l147 453h262zM1618 639q0 -99 -24 -195.5t-70.5 -181t-110.5 -149t-150.5 -101.5t-183.5 -37q-133 0 -219.5 66t-101.5 190q-72 -130 -164 -193t-217 -63q-162 0 -262.5 113t-100.5 277q0 195 98.5 365.5t249.5 283.5l226 -185q-101 -85 -157 -199.5
t-56 -217.5q0 -59 24 -95t68 -36q64 0 108.5 58t67.5 157l55 247h346l-55 -247q-24 -95 -4 -155t84 -60q49 0 93 49t68.5 121t24.5 143q0 148 -61 235l307 185q53 -59 85 -159.5t32 -215.5z" />
    <glyph glyph-name="afii10023" unicode="&#x401;" 
d="M1159 1624q0 -75 -60.5 -133.5t-135.5 -58.5q-66 0 -110 44t-44 109q0 76 60 134.5t137 58.5q65 0 109 -44t44 -110zM748 1624q0 -75 -60 -133.5t-135 -58.5q-66 0 -110 44t-44 109q0 76 59.5 134.5t135.5 58.5q66 0 110 -44t44 -110zM850 0h-864l303 1366h862l-76 -338
h-473l-37 -168h461l-76 -338h-461l-38 -184h473z" />
    <glyph glyph-name="afii10051" unicode="&#x402;" horiz-adv-x="1357" 
d="M705 -25l71 330q106 0 127 113l4 18q13 61 -22 94t-105 33q-69 0 -141 -20l-117 -543h-389l225 1028h-282l74 338h952l-76 -338h-281l-32 -154q125 27 209 27q95 0 168.5 -23.5t119 -65.5t72.5 -100t28.5 -127t-12.5 -147l-4 -20q-45 -210 -205.5 -326.5t-383.5 -116.5z
" />
    <glyph glyph-name="afii10052" unicode="&#x403;" horiz-adv-x="1015" 
d="M1196 1776l-338 -295h-227l270 295h295zM375 0h-389l303 1366h862l-76 -338h-473z" />
    <glyph glyph-name="afii10053" unicode="&#x404;" horiz-adv-x="1191" 
d="M623 -25q-255 0 -413.5 151.5t-158.5 403.5q0 133 31 259t93 234.5t148 190t203.5 128.5t251.5 47q101 0 185.5 -27t140 -68.5t97.5 -99t64.5 -111.5t34.5 -112l-362 -113q-10 78 -57.5 133.5t-122.5 55.5q-71 0 -131.5 -51t-104.5 -136h361l-76 -338h-358q5 -93 56 -149
t136 -56q61 0 120.5 44.5t92.5 115.5l307 -162q-96 -171 -237.5 -255.5t-300.5 -84.5z" />
    <glyph glyph-name="afii10054" unicode="&#x405;" horiz-adv-x="1075" 
d="M506 -25q-174 0 -322 60t-231 160l223 280q54 -72 150.5 -118t195.5 -46q50 0 78.5 24t28.5 58q0 28 -36.5 56t-91.5 51.5t-119 60.5t-119 79t-91.5 109.5t-36.5 149.5q0 95 37.5 183t104.5 156.5t169.5 109.5t223.5 41q138 0 268 -49.5t219 -139.5l-217 -278
q-58 64 -141.5 98.5t-163.5 34.5q-42 0 -66 -22.5t-24 -53.5q0 -25 27 -48.5t70.5 -46t95.5 -48t104.5 -59.5t96 -75t70.5 -101t27 -130q0 -102 -37.5 -193t-105.5 -158t-168 -106t-219 -39z" />
    <glyph glyph-name="afii10055" unicode="&#x406;" horiz-adv-x="583" 
d="M375 0h-389l303 1366h387z" />
    <glyph glyph-name="afii10056" unicode="&#x407;" horiz-adv-x="583" 
d="M915 1624q0 -75 -60.5 -133.5t-135.5 -58.5q-66 0 -110 44t-44 109q0 76 60 134.5t137 58.5q65 0 109 -44t44 -110zM504 1624q0 -75 -60 -133.5t-135 -58.5q-66 0 -109.5 44t-43.5 109q0 76 59.5 134.5t134.5 58.5q66 0 110 -44t44 -110zM375 0h-389l303 1366h387z" />
    <glyph glyph-name="afii10057" unicode="&#x408;" horiz-adv-x="894" 
d="M276 -25q-101 0 -196.5 26.5t-155.5 78.5l174 303q23 -28 65 -47t81 -19q61 0 101 35.5t54 100.5l203 913h387l-205 -926q-54 -244 -173.5 -354.5t-334.5 -110.5z" />
    <glyph glyph-name="afii10058" unicode="&#x409;" horiz-adv-x="1916" 
d="M-86 -25l76 342q51 0 90.5 24.5t83.5 99.5t86 208l225 717h930l-98 -442h184q171 0 282 -114t111 -280q0 -74 -19 -146t-63 -142.5t-109 -123.5t-164.5 -85.5t-221.5 -32.5h-590l225 1028h-190l-119 -393q-49 -160 -112 -278.5t-129.5 -190.5t-148 -115.5t-158.5 -59.5
t-171 -16zM1382 586h-149l-55 -248h151q64 0 109 43.5t45 105.5q0 46 -28 72.5t-73 26.5z" />
    <glyph glyph-name="afii10059" unicode="&#x40a;" horiz-adv-x="1916" 
d="M1307 0h-590l123 561h-342l-123 -561h-389l301 1366h387l-103 -467h342l103 467h389l-102 -467h184q172 0 282.5 -109t110.5 -272q0 -73 -18.5 -143.5t-62 -139t-108 -120.5t-163.5 -83.5t-221 -31.5zM1378 561h-151l-49 -223h151q65 0 108.5 38.5t43.5 96.5
q0 45 -28 66.5t-75 21.5z" />
    <glyph glyph-name="afii10060" unicode="&#x40b;" horiz-adv-x="1400" 
d="M813 0l88 408q34 155 -121 155q-69 0 -141 -20l-117 -543h-389l225 1028h-282l74 338h952l-76 -338h-281l-32 -154q125 27 209 27q118 0 203 -38t126.5 -104t54 -155.5t-13.5 -193.5l-88 -410h-391z" />
    <glyph glyph-name="afii10061" unicode="&#x40c;" horiz-adv-x="1224" 
d="M1288 1776l-338 -295h-227l270 295h295zM1137 0h-430l-144 475l-114 -145l-74 -330h-389l303 1366h387l-109 -496l379 496h469l-557 -635z" />
    <glyph glyph-name="afii10062" unicode="&#x40e;" horiz-adv-x="1181" 
d="M164 -25q-192 0 -285 84l191 306q52 -48 125 -48q52 0 86.5 28t70.5 79l15 22l-203 920h418l80 -518l305 520l428 -2l-680 -1032q-57 -89 -110.5 -150.5t-119.5 -111t-145.5 -73.5t-175.5 -24zM1133 1587q-70 -74 -160 -115.5t-185 -41.5q-94 0 -166.5 41.5t-111.5 115.5
l168 117q42 -86 143 -86q103 0 183 86z" />
    <glyph glyph-name="afii10145" unicode="&#x40f;" horiz-adv-x="1314" 
d="M295 -258l55 258h-364l301 1366h387l-225 -1028h342l225 1028h389l-299 -1366h-369l-55 -258h-387z" />
    <glyph glyph-name="afii10017" unicode="&#x410;" horiz-adv-x="1222" 
d="M1137 0h-406v176h-354l-78 -176h-434l702 1366h469zM731 514l-2 453l-201 -453h203z" />
    <glyph glyph-name="afii10018" unicode="&#x411;" horiz-adv-x="1185" 
d="M287 1366h979l-74 -338h-592l-27 -123h150q200 0 315 -109.5t115 -275.5q0 -73 -19 -144t-63 -139.5t-108.5 -120.5t-164 -84t-220.5 -32h-592zM664 567h-166l-49 -229h157q65 0 105.5 40.5t40.5 98.5q0 42 -24 66t-64 24z" />
    <glyph glyph-name="afii10019" unicode="&#x412;" horiz-adv-x="1228" 
d="M711 0h-725l303 1366h600q94 0 168.5 -27.5t120 -74t69 -104t23.5 -120.5q0 -134 -88 -242t-215 -120q91 -25 138.5 -98t47.5 -166q0 -58 -14.5 -114t-48.5 -111t-84 -96.5t-126 -67t-169 -25.5zM565 856h187q51 0 78.5 32t27.5 77q0 33 -22 52t-64 19h-166zM645 330
q54 0 88.5 32t34.5 84q0 37 -22.5 58.5t-61.5 21.5h-192l-43 -196h196z" />
    <glyph glyph-name="afii10020" unicode="&#x413;" horiz-adv-x="1015" 
d="M375 0h-389l303 1366h862l-76 -338h-473z" />
    <glyph glyph-name="afii10021" unicode="&#x414;" horiz-adv-x="1343" 
d="M-135 -252l125 569q35 8 57 17t51 30.5t51.5 55t48.5 91t52 138.5l225 717h930l-227 -1028h102l-129 -590h-389l55 252h-510l-55 -252h-387zM752 1028l-109 -352q-63 -212 -192 -338h340l151 690h-190z" />
    <glyph glyph-name="afii10022" unicode="&#x415;" 
d="M850 0h-864l303 1366h862l-76 -338h-473l-37 -168h461l-76 -338h-461l-38 -184h473z" />
    <glyph glyph-name="afii10024" unicode="&#x416;" horiz-adv-x="1769" 
d="M336 0h-471l602 731l-279 635h435l151 -473l105 473h389l-92 -416l317 416h465l-557 -635l280 -731h-438l-133 481l-51 -65l-90 -416h-389l90 418l-11 35z" />
    <glyph glyph-name="afii10025" unicode="&#x417;" horiz-adv-x="1155" 
d="M551 -25q-191 0 -358 74t-238 207l274 223q49 -77 141 -119.5t179 -42.5q80 0 121 34t41 75q0 45 -42.5 68.5t-144.5 23.5h-217l76 340h238q91 0 139.5 25t48.5 69q0 95 -197 95q-69 0 -141.5 -23t-122.5 -63l-160 247q90 81 214 129.5t262 48.5q244 0 393 -92.5
t149 -257.5q0 -129 -106 -225.5t-240 -118.5q110 -31 170 -105.5t60 -183.5q0 -123 -75 -222t-198 -152.5t-266 -53.5z" />
    <glyph glyph-name="afii10026" unicode="&#x418;" horiz-adv-x="1312" 
d="M354 0h-368l303 1366h387l-133 -598l469 598h393l-301 -1366h-387l139 639z" />
    <glyph glyph-name="afii10027" unicode="&#x419;" horiz-adv-x="1312" 
d="M354 0h-368l303 1366h387l-133 -598l469 598h393l-301 -1366h-387l139 639zM1204 1587q-70 -74 -160 -115.5t-184 -41.5t-166.5 41.5t-111.5 115.5l168 117q42 -86 143 -86q102 0 182 86z" />
    <glyph glyph-name="afii10028" unicode="&#x41a;" horiz-adv-x="1224" 
d="M1137 0h-430l-144 475l-114 -145l-74 -330h-389l303 1366h387l-109 -496l379 496h469l-557 -635z" />
    <glyph glyph-name="afii10029" unicode="&#x41b;" horiz-adv-x="1314" 
d="M-84 -25l74 342q51 0 90.5 24.5t83.5 99.5t86 208l225 717h930l-299 -1366h-389l225 1028h-190l-119 -393q-49 -160 -112 -278.5t-129 -190.5t-147.5 -115.5t-158.5 -59.5t-170 -16z" />
    <glyph glyph-name="afii10030" unicode="&#x41c;" horiz-adv-x="1613" 
d="M1405 0h-385l162 739l-412 -739h-147l-86 739l-162 -739h-389l303 1366h497l66 -602l338 602h516z" />
    <glyph glyph-name="afii10031" unicode="&#x41d;" horiz-adv-x="1314" 
d="M1106 0h-387l117 535h-344l-117 -535h-389l303 1366h387l-109 -494h344l109 494h387z" />
    <glyph glyph-name="afii10032" unicode="&#x41e;" horiz-adv-x="1318" 
d="M623 -25q-259 0 -415.5 155t-156.5 400q0 129 30 253t91.5 233.5t147 192.5t204 131.5t254.5 48.5q256 0 413 -155.5t157 -397.5q0 -129 -30 -253.5t-91.5 -234.5t-147 -193t-203.5 -131.5t-253 -48.5zM641 317q88 0 160.5 79t110.5 194t38 233q0 99 -52.5 161.5
t-141.5 62.5q-88 0 -160 -79t-109.5 -194t-37.5 -233q0 -99 51.5 -161.5t140.5 -62.5z" />
    <glyph glyph-name="afii10033" unicode="&#x41f;" horiz-adv-x="1314" 
d="M1106 0h-387l225 1028h-342l-227 -1028h-389l303 1366h1118z" />
    <glyph glyph-name="afii10034" unicode="&#x420;" horiz-adv-x="1185" 
d="M375 0h-389l303 1366h571q171 0 282 -113.5t111 -279.5q0 -74 -19 -146t-63.5 -142.5t-109 -123.5t-165 -86t-222.5 -33h-201zM547 780h153q63 0 107.5 44t44.5 106q0 46 -27.5 72t-74.5 26h-148z" />
    <glyph glyph-name="afii10035" unicode="&#x421;" horiz-adv-x="1191" 
d="M623 -25q-255 0 -413.5 151.5t-158.5 403.5q0 133 31 259t93 234.5t148 190t203.5 128.5t251.5 47q102 0 186.5 -27t142 -71.5t100 -105.5t65.5 -123.5t33 -131.5l-367 -94q-9 92 -56.5 151.5t-123.5 59.5q-89 0 -161.5 -79t-110 -194t-37.5 -233q0 -101 52 -162.5
t140 -61.5q61 0 120.5 44.5t92.5 115.5l307 -162q-96 -171 -237.5 -255.5t-300.5 -84.5z" />
    <glyph glyph-name="afii10036" unicode="&#x422;" 
d="M598 0h-389l227 1028h-282l73 338h953l-76 -338h-281z" />
    <glyph glyph-name="afii10037" unicode="&#x423;" horiz-adv-x="1181" 
d="M164 -25q-192 0 -285 84l191 306q52 -48 125 -48q52 0 86.5 28t70.5 79l15 22l-203 920h418l80 -518l305 520l428 -2l-680 -1032q-57 -89 -110.5 -150.5t-119.5 -111t-145.5 -73.5t-175.5 -24z" />
    <glyph glyph-name="afii10038" unicode="&#x424;" horiz-adv-x="1669" 
d="M918 0h-388l33 150q-255 38 -376 159.5t-121 333.5q0 151 89 277.5t259 208.5t395 100l33 137h387l-35 -152q256 -37 378 -158t122 -335q0 -230 -203.5 -395t-542.5 -191zM1290 723q0 114 -174 151l-88 -387q262 50 262 236zM469 643q0 -117 172 -154l88 385
q-260 -47 -260 -231z" />
    <glyph glyph-name="afii10039" unicode="&#x425;" horiz-adv-x="1222" 
d="M1137 0h-424l-119 383l-268 -383h-461l559 721l-234 645h422l101 -356l237 356h463l-528 -686z" />
    <glyph glyph-name="afii10040" unicode="&#x426;" horiz-adv-x="1343" 
d="M762 -252l55 252h-831l301 1366h387l-225 -1028h342l225 1028h389l-227 -1028h102l-129 -590h-389z" />
    <glyph glyph-name="afii10041" unicode="&#x427;" horiz-adv-x="1241" 
d="M653 1366l-98 -442q-18 -81 15.5 -118.5t105.5 -37.5q69 0 141 20l127 578h387l-299 -1366h-387l98 457q-125 -27 -208 -27q-95 0 -169 24.5t-119.5 69t-71.5 106t-26.5 135.5t15.5 157l98 444h391z" />
    <glyph glyph-name="afii10042" unicode="&#x428;" horiz-adv-x="1871" 
d="M1573 1366h389l-299 -1366h-1675l299 1366h389l-227 -1028h256l225 1028h389l-227 -1028h256z" />
    <glyph glyph-name="afii10043" unicode="&#x429;" horiz-adv-x="1898" 
d="M1573 1366h389l-227 -1028h102l-131 -590h-387l55 252h-1386l299 1366h389l-227 -1028h256l225 1028h389l-227 -1028h256z" />
    <glyph glyph-name="afii10044" unicode="&#x42a;" horiz-adv-x="1409" 
d="M799 0h-590l225 1028h-282l73 338h672l-98 -442h184q171 0 282 -114t111 -280q0 -74 -19 -146t-63 -142.5t-109 -123.5t-164.5 -85.5t-221.5 -32.5zM874 586h-149l-55 -248h151q64 0 109 43.5t45 105.5q0 46 -28 72.5t-73 26.5z" />
    <glyph glyph-name="afii10045" unicode="&#x42b;" horiz-adv-x="1718" 
d="M1509 0h-387l299 1366h387zM287 1366h387l-96 -442h184q171 0 281 -113.5t110 -280.5q0 -74 -19 -146t-63 -142.5t-108.5 -123.5t-164 -85.5t-220.5 -32.5h-592zM653 586h-151l-53 -248h149q64 0 109 43.5t45 105.5q0 47 -27 73t-72 26z" />
    <glyph glyph-name="afii10046" unicode="&#x42c;" horiz-adv-x="1185" 
d="M287 1366h387l-96 -442h184q171 0 281 -113.5t110 -280.5q0 -74 -19 -146t-63 -142.5t-108.5 -123.5t-164 -85.5t-220.5 -32.5h-592zM653 586h-151l-53 -248h149q64 0 109 43.5t45 105.5q0 47 -27 73t-72 26z" />
    <glyph glyph-name="afii10047" unicode="&#x42d;" horiz-adv-x="1191" 
d="M649 1389q255 0 413.5 -151.5t158.5 -401.5q0 -133 -31 -259t-93 -235t-148 -191t-203.5 -129t-251.5 -47q-101 0 -185.5 27t-140.5 68.5t-98.5 99t-65 111.5t-35.5 112l365 115q10 -78 57.5 -134.5t122.5 -56.5t137.5 55.5t104.5 149.5h-363l76 338h352q-9 84 -60 135.5
t-130 51.5q-61 0 -120.5 -43.5t-92.5 -114.5l-307 162q96 170 237 254t301 84z" />
    <glyph glyph-name="afii10048" unicode="&#x42e;" horiz-adv-x="1933" 
d="M1235 -25q-259 0 -415 155t-156 400v5h-170l-117 -535h-391l301 1366h389l-109 -494h154q38 110 99.5 202.5t144.5 163.5t192.5 111t233.5 40q256 0 412.5 -155.5t156.5 -397.5q0 -129 -30 -253.5t-91.5 -234.5t-147 -193t-203.5 -131.5t-253 -48.5zM1253 317
q88 0 161 79t111 194t38 233q0 99 -53 161.5t-142 62.5q-88 0 -160 -79t-109.5 -194t-37.5 -233q0 -99 51.5 -161.5t140.5 -62.5z" />
    <glyph glyph-name="afii10049" unicode="&#x42f;" horiz-adv-x="1216" 
d="M393 0h-454l340 535q-58 46 -98 123t-40 178q0 74 19 146.5t63.5 142.5t109.5 123t165.5 85.5t222.5 32.5h588l-301 -1366h-387l98 442h-74zM645 780h148l55 248h-152q-65 0 -109 -43t-44 -106q0 -47 28 -73t74 -26z" />
    <glyph glyph-name="afii10065" unicode="&#x430;" horiz-adv-x="1083" 
d="M487 1014q181 0 248 -133l25 108h344l-219 -989h-344l24 106q-106 -131 -241 -131q-143 0 -223.5 96.5t-80.5 278.5q0 84 17.5 173.5t56 177.5t92 157.5t132 112.5t169.5 43zM561 709q-55 0 -99 -50t-64.5 -116.5t-20.5 -128.5q0 -61 34 -97t89 -36q64 0 118 67l66 293
q-40 68 -123 68z" />
    <glyph glyph-name="afii10066" unicode="&#x431;" horiz-adv-x="1052" 
d="M496 281q54 0 97.5 53.5t63 119.5t19.5 124q0 131 -123 131q-53 0 -96 -53t-62.5 -119.5t-19.5 -122.5q0 -66 31.5 -99.5t89.5 -33.5zM479 -25q-221 0 -333.5 123.5t-112.5 339.5q0 86 25 194t67 197q182 380 567 474q111 26 119 63h363q-47 -213 -408 -276
q-151 -27 -226.5 -70.5t-113.5 -118.5q102 105 268 105q146 0 239 -119t93 -305q0 -89 -24 -176.5t-72 -165t-113 -137t-152.5 -94t-185.5 -34.5z" />
    <glyph glyph-name="afii10067" unicode="&#x432;" horiz-adv-x="1097" 
d="M627 0h-652l220 989h577q132 0 211.5 -62t79.5 -159q0 -94 -62 -171t-170 -95q71 -23 109.5 -73t38.5 -116q0 -129 -92 -221t-260 -92zM381 264h194q25 0 42.5 19t17.5 43q0 20 -12.5 32.5t-32.5 12.5h-187zM461 633h180q26 0 40.5 16t14.5 39q0 39 -43 39h-172z" />
    <glyph glyph-name="afii10068" unicode="&#x433;" horiz-adv-x="815" 
d="M895 989l-68 -299h-354l-149 -690h-349l220 989h700z" />
    <glyph glyph-name="afii10069" unicode="&#x434;" horiz-adv-x="1128" 
d="M-133 -252l115 531q26 5 42.5 12.5t40.5 29t47.5 68t47.5 119.5l159 481h795l-151 -688h98l-123 -553h-346l55 252h-381l-53 -252h-346zM561 690l-63 -198q-40 -119 -115 -191h233l86 389h-141z" />
    <glyph glyph-name="afii10070" unicode="&#x435;" horiz-adv-x="1001" 
d="M492 -25q-216 0 -341.5 113.5t-125.5 314.5q0 113 39 222.5t108 196t173 139.5t224 53q189 0 299.5 -110t110.5 -300q0 -101 -33 -219h-592v-16q0 -12 9.5 -31t29.5 -40.5t58.5 -36.5t87.5 -15q113 0 188 55l107 -219q-67 -51 -159.5 -79t-182.5 -28zM395 612h275
q2 8 2 27q0 40 -32.5 73t-90.5 33q-63 0 -104 -42.5t-50 -90.5z" />
    <glyph glyph-name="afii10072" unicode="&#x436;" horiz-adv-x="1439" 
d="M291 0h-420l422 547l-182 442h385l92 -299l65 299h346l-53 -244l182 244h416l-379 -442l183 -547h-390l-67 344l-45 -53l-64 -291h-346l64 291l-8 24z" />
    <glyph glyph-name="afii10073" unicode="&#x437;" horiz-adv-x="919" 
d="M539 1014q197 0 298 -68.5t101 -187.5q0 -108 -88 -183t-203 -88q86 -13 139.5 -70t53.5 -126q0 -138 -136.5 -227t-351.5 -89q-126 0 -236.5 43t-174.5 115l198 191q83 -80 209 -80q152 0 152 71q0 52 -103 52h-182l59 264h177q137 0 137 65q0 23 -26 37.5t-77 14.5
q-152 0 -286 -91l-113 215q200 142 453 142z" />
    <glyph glyph-name="afii10074" unicode="&#x438;" horiz-adv-x="1095" 
d="M307 0h-332l220 989h346l-90 -405l311 405h352l-217 -989h-346l94 438z" />
    <glyph glyph-name="afii10075" unicode="&#x439;" horiz-adv-x="1095" 
d="M307 0h-332l220 989h346l-90 -405l311 405h352l-217 -989h-346l94 438zM1022 1245q-70 -74 -160 -116t-184 -42t-167 42t-112 116l168 117q42 -86 144 -86t182 86z" />
    <glyph glyph-name="afii10076" unicode="&#x43a;" 
d="M934 0h-397l-68 336l-98 -119l-47 -217h-349l222 989h346l-78 -340l258 340h410l-379 -442z" />
    <glyph glyph-name="afii10077" unicode="&#x43b;" horiz-adv-x="1095" 
d="M-84 -25l64 287q46 0 89 51t91 195l159 481h795l-217 -989h-346l151 690h-141l-72 -223q-58 -176 -131 -281t-180.5 -158t-261.5 -53z" />
    <glyph glyph-name="afii10078" unicode="&#x43c;" horiz-adv-x="1355" 
d="M1159 0h-342l107 494l-277 -494h-158l-59 494l-106 -494h-349l220 989h434l51 -446l256 446h440z" />
    <glyph glyph-name="afii10079" unicode="&#x43d;" horiz-adv-x="1095" 
d="M324 0h-349l224 989h346l-72 -321h227l72 321h346l-221 -989h-346l82 367h-227z" />
    <glyph glyph-name="afii10080" unicode="&#x43e;" horiz-adv-x="1052" 
d="M479 -25q-220 0 -337 119.5t-117 313.5q0 111 39 219t107.5 194.5t172.5 139.5t225 53q221 0 339 -119t118 -313q0 -89 -24 -176.5t-72 -165t-113 -137t-152.5 -94t-185.5 -34.5zM496 281q54 0 97.5 53.5t63 119.5t19.5 124q0 131 -123 131q-53 0 -96 -53t-62.5 -119.5
t-19.5 -122.5q0 -66 31.5 -99.5t89.5 -33.5z" />
    <glyph glyph-name="afii10081" unicode="&#x43f;" horiz-adv-x="1095" 
d="M897 0h-346l154 690h-230l-153 -690h-347l224 989h919z" />
    <glyph glyph-name="afii10082" unicode="&#x440;" horiz-adv-x="1081" 
d="M596 -25q-182 0 -250 134l-106 -486h-346l303 1366h346l-27 -106q106 131 242 131q143 0 223 -96t80 -279q0 -84 -17.5 -173.5t-56 -177.5t-91.5 -157.5t-131 -112.5t-169 -43zM520 281q55 0 99 50t65 116t21 128q0 61 -34 97.5t-89 36.5q-66 0 -117 -68l-66 -291
q38 -69 121 -69z" />
    <glyph glyph-name="afii10083" unicode="&#x441;" horiz-adv-x="894" 
d="M479 -25q-209 0 -331.5 117.5t-122.5 313.5q0 121 41.5 232t113 194t175.5 132.5t223 49.5q124 0 218.5 -43t145.5 -111l-209 -225q-48 74 -141 74q-92 0 -153.5 -80t-61.5 -191q0 -73 46.5 -115t117.5 -42q79 0 139 63l117 -250q-52 -50 -135 -84.5t-183 -34.5z" />
    <glyph glyph-name="afii10084" unicode="&#x442;" horiz-adv-x="815" 
d="M471 0h-346l151 690h-208l65 299h762l-68 -299h-204z" />
    <glyph glyph-name="afii10085" unicode="&#x443;" horiz-adv-x="993" 
d="M-98 -373l110 289q24 -12 76 -12q59 0 86 43l29 47l-115 995h354l25 -573l283 573h374l-626 -1116q-88 -157 -178.5 -215.5t-225.5 -58.5q-122 0 -192 28z" />
    <glyph glyph-name="afii10086" unicode="&#x444;" horiz-adv-x="1566" 
d="M455 1014q73 0 141 -32.5t96 -98.5l107 483h346l-107 -483q97 131 234 131q92 0 158 -52t95 -130t29 -173q0 -84 -18.5 -177t-56.5 -183t-90 -162.5t-126 -117t-157 -44.5q-71 0 -139.5 33.5t-98.5 100.5l-106 -486h-346l106 486q-99 -134 -233 -134q-91 0 -157 52
t-96 131.5t-30 173.5q0 84 18.5 176.5t57 182.5t91 162t126 116.5t156.5 44.5zM541 709q-49 0 -91 -49t-63.5 -119t-21.5 -138q0 -57 26 -89.5t70 -32.5q63 0 114 67l64 293q-9 32 -35.5 50t-62.5 18zM1022 281q72 0 124 99.5t52 205.5q0 58 -26.5 90.5t-71.5 32.5
q-63 0 -113 -68l-65 -291q11 -32 37 -50.5t63 -18.5z" />
    <glyph glyph-name="afii10087" unicode="&#x445;" horiz-adv-x="962" 
d="M868 0h-362l-68 264l-186 -264h-381l391 502l-156 487h361l57 -246l166 246h381l-375 -487z" />
    <glyph glyph-name="afii10088" unicode="&#x446;" horiz-adv-x="1128" 
d="M592 -252l55 252h-672l220 989h346l-152 -688h227l152 688h346l-151 -688h98l-123 -553h-346z" />
    <glyph glyph-name="afii10089" unicode="&#x447;" horiz-adv-x="1085" 
d="M184 989h346l-71 -321q-23 -107 78 -107q69 0 133 33l88 395h346l-217 -989h-346l69 326q-44 -29 -116.5 -49.5t-157.5 -20.5q-312 0 -250 293z" />
    <glyph glyph-name="afii10090" unicode="&#x448;" horiz-adv-x="1609" 
d="M1284 989h346l-217 -989h-1438l220 989h346l-152 -688h199l151 688h346l-151 -688h199z" />
    <glyph glyph-name="afii10091" unicode="&#x449;" horiz-adv-x="1642" 
d="M1284 989h346l-151 -688h96l-121 -553h-346l55 252h-1188l220 989h346l-152 -688h199l151 688h346l-151 -688h199z" />
    <glyph glyph-name="afii10092" unicode="&#x44a;" horiz-adv-x="1212" 
d="M737 0h-612l151 690h-208l65 299h555l-67 -303h159q167 0 267 -83t100 -216q0 -72 -28 -140.5t-78.5 -124t-129.5 -89t-174 -33.5zM727 414h-166l-31 -142h179q37 0 59.5 24.5t22.5 59.5q0 26 -18 42t-46 16z" />
    <glyph glyph-name="afii10093" unicode="&#x44b;" horiz-adv-x="1548" 
d="M1352 0h-346l217 989h346zM195 989h346l-68 -303h158q167 0 266.5 -83t99.5 -216q0 -72 -27.5 -140.5t-77.5 -124t-129.5 -89t-174.5 -33.5h-613zM578 414h-164l-31 -142h176q37 0 59.5 24.5t22.5 59.5q0 26 -17 42t-46 16z" />
    <glyph glyph-name="afii10094" unicode="&#x44c;" horiz-adv-x="1062" 
d="M195 989h346l-68 -303h158q167 0 266.5 -83t99.5 -216q0 -72 -27.5 -140.5t-77.5 -124t-129.5 -89t-174.5 -33.5h-613zM578 414h-164l-31 -142h176q37 0 59.5 24.5t22.5 59.5q0 26 -17 42t-46 16z" />
    <glyph glyph-name="afii10095" unicode="&#x44d;" horiz-adv-x="894" 
d="M414 1014q209 0 331.5 -116.5t122.5 -311.5q0 -121 -41.5 -232t-113 -195t-176 -134t-222.5 -50q-124 0 -218.5 43t-147.5 111l198 209q54 -70 150 -70q127 0 184 117h-272l49 227h248q-17 51 -59.5 80t-96.5 29q-82 0 -141 -53l-115 235q53 47 137 79t183 32z" />
    <glyph glyph-name="afii10096" unicode="&#x44e;" horiz-adv-x="1556" 
d="M983 -25q-210 0 -327.5 107.5t-129.5 284.5h-123l-79 -367h-349l220 989h346l-72 -321h111q67 153 195.5 249.5t297.5 96.5q220 0 338.5 -119.5t118.5 -312.5q0 -111 -39 -219.5t-108.5 -194.5t-174 -139.5t-225.5 -53.5zM999 281q54 0 96.5 53.5t62.5 120t20 123.5
q0 131 -121 131q-53 0 -96 -53t-62.5 -119.5t-19.5 -122.5q0 -133 120 -133z" />
    <glyph glyph-name="afii10097" unicode="&#x44f;" horiz-adv-x="1089" 
d="M332 0h-387l262 377q-48 32 -81.5 90t-33.5 137q0 72 27.5 140t78 123t130 88.5t174.5 33.5h612l-217 -989h-346l65 305h-106zM514 578h164l31 141h-179q-37 0 -59 -25.5t-22 -60.5q0 -26 17 -40.5t48 -14.5z" />
    <glyph glyph-name="afii10071" unicode="&#x451;" horiz-adv-x="1001" 
d="M1075 1282q0 -75 -60.5 -133.5t-135.5 -58.5q-66 0 -110 44t-44 109q0 76 60 134.5t137 58.5q65 0 109 -44t44 -110zM664 1282q0 -75 -60 -133.5t-135 -58.5q-66 0 -110 44t-44 109q0 76 59.5 134.5t135.5 58.5q66 0 110 -44t44 -110zM492 -25q-216 0 -341.5 113.5
t-125.5 314.5q0 113 39 222.5t108 196t173 139.5t224 53q189 0 299.5 -110t110.5 -300q0 -101 -33 -219h-592v-16q0 -12 9.5 -31t29.5 -40.5t58.5 -36.5t87.5 -15q113 0 188 55l107 -219q-67 -51 -159.5 -79t-182.5 -28zM395 612h275q2 8 2 27q0 40 -32.5 73t-90.5 33
q-63 0 -104 -42.5t-50 -90.5z" />
    <glyph glyph-name="afii10099" unicode="&#x452;" horiz-adv-x="1110" 
d="M829 1071h-256l-43 -197q51 56 139 98t183 42q143 0 197 -73.5t26 -195.5l-162 -737q-41 -192 -157.5 -300.5t-306.5 -108.5q-75 0 -117.5 11t-83.5 38l127 264q31 -27 80 -27q86 0 112 123l131 594q12 57 -8 82t-69 25q-75 0 -148 -86l-135 -623h-346l235 1071h-84
l41 189h84l23 106h346l-23 -106h256z" />
    <glyph glyph-name="afii10100" unicode="&#x453;" horiz-adv-x="815" 
d="M1036 1434l-338 -295h-227l270 295h295zM895 989l-68 -299h-354l-149 -690h-349l220 989h700z" />
    <glyph glyph-name="afii10101" unicode="&#x454;" horiz-adv-x="894" 
d="M479 -25q-209 0 -331.5 117.5t-122.5 313.5q0 121 41.5 232t113 194t175.5 132.5t223 49.5q124 0 218.5 -43t145.5 -111l-197 -207q-55 68 -149 68q-121 0 -182 -109h272l-49 -227h-254q17 -54 60 -85.5t100 -31.5q80 0 141 54l115 -236q-55 -46 -138 -78.5t-182 -32.5z
" />
    <glyph glyph-name="afii10102" unicode="&#x455;" horiz-adv-x="892" 
d="M397 -25q-132 0 -254.5 48t-195.5 122l180 220q44 -49 125.5 -90.5t159.5 -41.5q35 0 56 14t21 36t-30 41t-74.5 33t-97 38t-97 53t-74.5 82t-30 121q0 70 27 134.5t77 116t130 82t178 30.5q115 0 223.5 -40t185.5 -114l-166 -213q-35 39 -104 74t-137 35q-36 0 -56 -14
t-20 -35q0 -18 30.5 -34.5t76 -30t98.5 -38t98.5 -55t76 -84t30.5 -121.5q0 -155 -119 -262t-318 -107z" />
    <glyph glyph-name="afii10103" unicode="&#x456;" horiz-adv-x="520" 
d="M406 1069q-75 0 -126 49t-51 117q0 101 70 163t152 62q75 0 125.5 -48.5t50.5 -117.5q0 -101 -69.5 -163t-151.5 -62zM324 0h-349l222 989h346z" />
    <glyph glyph-name="afii10104" unicode="&#x457;" horiz-adv-x="520" 
d="M807 1282q0 -75 -61 -133.5t-136 -58.5q-66 0 -109.5 44t-43.5 109q0 76 59.5 134.5t136.5 58.5q65 0 109.5 -44t44.5 -110zM395 1282q0 -75 -59.5 -133.5t-134.5 -58.5q-66 0 -110 44t-44 109q0 76 59.5 134.5t135.5 58.5q66 0 109.5 -44t43.5 -110zM324 0h-349l222 989
h346z" />
    <glyph glyph-name="afii10105" unicode="&#x458;" horiz-adv-x="520" 
d="M-94 -401q-167 0 -242 63l123 252q25 -29 80 -29q83 0 110 123l220 981h346l-219 -981q-21 -97 -51.5 -168.5t-79 -127.5t-120.5 -84.5t-167 -28.5zM406 1069q-75 0 -126 49t-51 117q0 101 70 163t152 62q75 0 125.5 -48.5t50.5 -117.5q0 -101 -69.5 -163t-151.5 -62z
" />
    <glyph glyph-name="afii10106" unicode="&#x459;" horiz-adv-x="1638" 
d="M-84 -25l61 287q48 0 91.5 51t91.5 195l159 481h795l-67 -303h176q183 0 273.5 -91t74.5 -233q-16 -149 -132.5 -255.5t-301.5 -106.5h-586l151 690h-141l-72 -223q-58 -176 -131 -281t-180.5 -158t-261.5 -53zM1153 414h-166l-31 -142h170q37 0 63.5 22t29.5 54
q5 28 -13 47t-53 19z" />
    <glyph glyph-name="afii10107" unicode="&#x45a;" horiz-adv-x="1613" 
d="M324 0h-349l220 989h346l-70 -313h227l70 313h346l-70 -313h177q183 0 273.5 -89t76.5 -231q-16 -146 -132.5 -251t-301.5 -105h-586l82 377h-227zM1159 391h-176l-27 -119h181q33 0 55 19t25 47q3 23 -13 38t-45 15z" />
    <glyph glyph-name="afii10108" unicode="&#x45b;" horiz-adv-x="1110" 
d="M913 0h-346l129 590q6 30 6 47q0 35 -25 53.5t-65 18.5q-68 0 -137 -86l-137 -623h-346l235 1073h-82l41 189h84l23 104h346l-25 -104h258l-43 -189h-256l-45 -199q130 140 287 140q123 0 193.5 -61.5t70.5 -159.5q0 -30 -8 -66z" />
    <glyph glyph-name="afii10109" unicode="&#x45c;" 
d="M1114 1434l-338 -295h-227l270 295h295zM934 0h-397l-68 336l-98 -119l-47 -217h-349l222 989h346l-78 -340l258 340h410l-379 -442z" />
    <glyph glyph-name="afii10110" unicode="&#x45e;" horiz-adv-x="993" 
d="M-98 -373l110 289q24 -12 76 -12q59 0 86 43l29 47l-115 995h354l25 -573l283 573h374l-626 -1116q-88 -157 -178.5 -215.5t-225.5 -58.5q-122 0 -192 28zM963 1245q-70 -74 -160.5 -116t-184.5 -42t-166.5 42t-111.5 116l168 117q42 -86 143 -86q103 0 183 86z" />
    <glyph glyph-name="afii10193" unicode="&#x45f;" horiz-adv-x="1095" 
d="M207 -252l55 252h-287l220 989h346l-152 -688h227l152 688h346l-217 -989h-289l-55 -252h-346z" />
    <glyph glyph-name="afii10050" unicode="&#x490;" horiz-adv-x="1015" 
d="M375 0h-389l301 1366h473l55 252h389l-131 -590h-473z" />
    <glyph glyph-name="afii10098" unicode="&#x491;" horiz-adv-x="815" 
d="M473 690l-149 -690h-349l220 989h354l55 252h346l-123 -551h-354z" />
    <glyph glyph-name="uni1E02" unicode="&#x1e02;" horiz-adv-x="1228" 
d="M711 0h-725l303 1366h600q94 0 168.5 -27.5t120 -74t69 -104t23.5 -120.5q0 -134 -88 -242t-215 -120q91 -25 138.5 -98t47.5 -166q0 -58 -14.5 -114t-48.5 -111t-84 -96.5t-126 -67t-169 -25.5zM565 856h187q51 0 78.5 32t27.5 77q0 33 -22 52t-64 19h-166zM645 330
q54 0 88.5 32t34.5 84q0 37 -22.5 58.5t-61.5 21.5h-192l-43 -196h196zM1040 1626q0 -75 -60.5 -133.5t-135.5 -58.5q-66 0 -110 44t-44 109q0 76 60 134.5t137 58.5q65 0 109 -44t44 -110z" />
    <glyph glyph-name="uni1E03" unicode="&#x1e03;" horiz-adv-x="1083" 
d="M596 -25q-182 0 -250 134l-22 -109h-347l302 1366h346l-109 -483q106 131 242 131q143 0 223 -96t80 -279q0 -84 -17.5 -173.5t-56 -177.5t-91.5 -157.5t-131 -112.5t-169 -43zM520 281q55 0 99 50t65 116t21 128q0 61 -34 97.5t-89 36.5q-66 0 -117 -68l-66 -291
q38 -69 121 -69zM979 1626q0 -75 -61 -133.5t-136 -58.5q-66 0 -109.5 44t-43.5 109q0 76 59.5 134.5t136.5 58.5q65 0 109.5 -44t44.5 -110z" />
    <glyph glyph-name="uni1E0A" unicode="&#x1e0a;" horiz-adv-x="1290" 
d="M504 0h-518l303 1366h506q97 0 188 -37t163.5 -103.5t116.5 -169.5t44 -225q0 -120 -24 -232t-83 -223t-147.5 -192.5t-230 -132.5t-318.5 -51zM451 338h122q65 0 120.5 28t94.5 74.5t66.5 108t41 128.5t13.5 136q0 99 -51.5 157t-134.5 58h-121zM1079 1626
q0 -75 -60.5 -133.5t-135.5 -58.5q-66 0 -110 44t-44 109q0 76 60 134.5t137 58.5q65 0 109 -44t44 -110z" />
    <glyph glyph-name="uni1E0B" unicode="&#x1e0b;" horiz-adv-x="1083" 
d="M487 1014q181 0 248 -133l109 485h344l-303 -1366h-344l24 106q-106 -131 -241 -131q-143 0 -223.5 96.5t-80.5 278.5q0 84 17.5 173.5t56 177.5t92 157.5t132 112.5t169.5 43zM561 709q-55 0 -99 -50t-64.5 -116.5t-20.5 -128.5q0 -61 34 -97t89 -36q64 0 118 67l66 293
q-40 68 -123 68zM954 1626q0 -75 -60.5 -133.5t-135.5 -58.5q-66 0 -110 44t-44 109q0 76 60 134.5t137 58.5q65 0 109 -44t44 -110z" />
    <glyph glyph-name="uni1E1E" unicode="&#x1e1e;" horiz-adv-x="1015" 
d="M948 1626q0 -75 -60.5 -133.5t-135.5 -58.5q-66 0 -110 44t-44 109q0 76 60 134.5t137 58.5q65 0 109 -44t44 -110zM375 0h-389l303 1366h862l-76 -338h-473l-37 -168h461l-76 -338h-461z" />
    <glyph glyph-name="uni1E1F" unicode="&#x1e1f;" horiz-adv-x="661" 
d="M872 1626q0 -75 -60.5 -133.5t-135.5 -58.5q-66 0 -110 44t-44 109q0 76 60 134.5t137 58.5q65 0 109 -44t44 -110zM379 0h-346l151 690h-125l68 299h123l10 47q79 350 391 350q81 0 155.5 -21.5t115.5 -61.5l-146 -222q-30 33 -78 33q-76 0 -94 -84l-8 -41h160l-68 -299
h-158z" />
    <glyph glyph-name="uni1E22" unicode="&#x1e22;" horiz-adv-x="1314" 
d="M1106 0h-387l117 535h-344l-117 -535h-389l303 1366h387l-109 -494h344l109 494h387zM1079 1626q0 -75 -60.5 -133.5t-135.5 -58.5q-66 0 -110 44t-44 109q0 76 60 134.5t137 58.5q65 0 109 -44t44 -110z" />
    <glyph glyph-name="uni1E23" unicode="&#x1e23;" horiz-adv-x="1095" 
d="M899 0h-346l129 590q6 30 6 47q0 35 -25 53.5t-65 18.5q-68 0 -137 -86l-137 -623h-347l302 1366h346l-111 -492q130 140 287 140q123 0 193.5 -61.5t70.5 -159.5q0 -30 -8 -66zM973 1626q0 -75 -61 -133.5t-136 -58.5q-66 0 -109.5 44t-43.5 109q0 76 59.5 134.5
t136.5 58.5q65 0 109.5 -44t44.5 -110z" />
    <glyph glyph-name="uni1E56" unicode="&#x1e56;" horiz-adv-x="1185" 
d="M375 0h-389l303 1366h571q171 0 282 -113.5t111 -279.5q0 -74 -19 -146t-63.5 -142.5t-109 -123.5t-165 -86t-222.5 -33h-201zM547 780h153q63 0 107.5 44t44.5 106q0 46 -27.5 72t-74.5 26h-148zM1040 1626q0 -75 -60.5 -133.5t-135.5 -58.5q-66 0 -110 44t-44 109
q0 76 60 134.5t137 58.5q65 0 109 -44t44 -110z" />
    <glyph glyph-name="uni1E57" unicode="&#x1e57;" horiz-adv-x="1081" 
d="M596 -25q-182 0 -250 134l-106 -486h-346l303 1366h346l-27 -106q106 131 242 131q143 0 223 -96t80 -279q0 -84 -17.5 -173.5t-56 -177.5t-91.5 -157.5t-131 -112.5t-169 -43zM520 281q55 0 99 50t65 116t21 128q0 61 -34 97.5t-89 36.5q-66 0 -117 -68l-66 -291
q38 -69 121 -69zM905 1284q0 -75 -60.5 -133.5t-135.5 -58.5q-66 0 -110 44t-44 109q0 76 60 134.5t137 58.5q65 0 109 -44t44 -110z" />
    <glyph glyph-name="uni1E60" unicode="&#x1e60;" horiz-adv-x="1075" 
d="M506 -25q-174 0 -322 60t-231 160l223 280q54 -72 150.5 -118t195.5 -46q50 0 78.5 24t28.5 58q0 28 -36.5 56t-91.5 51.5t-119 60.5t-119 79t-91.5 109.5t-36.5 149.5q0 95 37.5 183t104.5 156.5t169.5 109.5t223.5 41q138 0 268 -49.5t219 -139.5l-217 -278
q-58 64 -141.5 98.5t-163.5 34.5q-42 0 -66 -22.5t-24 -53.5q0 -25 27 -48.5t70.5 -46t95.5 -48t104.5 -59.5t96 -75t70.5 -101t27 -130q0 -102 -37.5 -193t-105.5 -158t-168 -106t-219 -39zM971 1626q0 -75 -61 -133.5t-136 -58.5q-66 0 -109.5 44t-43.5 109
q0 76 59.5 134.5t136.5 58.5q65 0 109.5 -44t44.5 -110z" />
    <glyph glyph-name="uni1E61" unicode="&#x1e61;" horiz-adv-x="892" 
d="M397 -25q-132 0 -254.5 48t-195.5 122l180 220q44 -49 125.5 -90.5t159.5 -41.5q35 0 56 14t21 36t-30 41t-74.5 33t-97 38t-97 53t-74.5 82t-30 121q0 70 27 134.5t77 116t130 82t178 30.5q115 0 223.5 -40t185.5 -114l-166 -213q-35 39 -104 74t-137 35q-36 0 -56 -14
t-20 -35q0 -18 30.5 -34.5t76 -30t98.5 -38t98.5 -55t76 -84t30.5 -121.5q0 -155 -119 -262t-318 -107zM805 1284q0 -75 -61 -133.5t-136 -58.5q-66 0 -109.5 44t-43.5 109q0 76 59.5 134.5t136.5 58.5q65 0 109.5 -44t44.5 -110z" />
    <glyph glyph-name="uni1E6A" unicode="&#x1e6a;" 
d="M598 0h-389l227 1028h-282l73 338h953l-76 -338h-281zM934 1626q0 -75 -61 -133.5t-136 -58.5q-66 0 -109.5 44t-43.5 109q0 76 59.5 134.5t136.5 58.5q65 0 109.5 -44t44.5 -110z" />
    <glyph glyph-name="uni1E6B" unicode="&#x1e6b;" horiz-adv-x="679" 
d="M414 -25q-155 0 -241.5 58t-86.5 172q0 44 10 90l88 395h-125l68 299h125l59 271h346l-59 -271h158l-68 -299h-158l-67 -301q-4 -32 -4 -43q0 -65 69 -65q31 0 43 12l-4 -285q-54 -33 -153 -33zM737 1626q0 -75 -60.5 -133.5t-135.5 -58.5q-66 0 -110 44t-44 109
q0 76 60 134.5t137 58.5q65 0 109 -44t44 -110z" />
    <glyph glyph-name="Wgrave" unicode="&#x1e80;" horiz-adv-x="1677" 
d="M1255 0h-397l33 741l-293 -741h-395l-21 1366h408l-45 -788l329 788h293l-14 -788l301 788h422zM1169 1481h-221l-209 295h291z" />
    <glyph glyph-name="wgrave" unicode="&#x1e81;" horiz-adv-x="1515" 
d="M1157 0h-371l-18 553l-260 -553h-371l-43 989h346l-6 -551l260 551h316l22 -551l240 551h366zM1008 1139h-222l-208 295h290z" />
    <glyph glyph-name="Wacute" unicode="&#x1e82;" horiz-adv-x="1677" 
d="M1481 1776l-338 -295h-228l271 295h295zM1255 0h-397l33 741l-293 -741h-395l-21 1366h408l-45 -788l329 788h293l-14 -788l301 788h422z" />
    <glyph glyph-name="wacute" unicode="&#x1e83;" horiz-adv-x="1515" 
d="M1319 1434l-338 -295h-227l270 295h295zM1157 0h-371l-18 553l-260 -553h-371l-43 989h346l-6 -551l260 551h316l22 -551l240 551h366z" />
    <glyph glyph-name="Wdieresis" unicode="&#x1e84;" horiz-adv-x="1677" 
d="M1452 1624q0 -75 -61 -133.5t-136 -58.5q-66 0 -109.5 44t-43.5 109q0 76 59.5 134.5t136.5 58.5q65 0 109.5 -44t44.5 -110zM1040 1624q0 -75 -59.5 -133.5t-134.5 -58.5q-66 0 -110 44t-44 109q0 76 59.5 134.5t135.5 58.5q66 0 109.5 -44t43.5 -110zM1255 0h-397
l33 741l-293 -741h-395l-21 1366h408l-45 -788l329 788h293l-14 -788l301 788h422z" />
    <glyph glyph-name="wdieresis" unicode="&#x1e85;" horiz-adv-x="1515" 
d="M1292 1282q0 -75 -60.5 -133.5t-135.5 -58.5q-66 0 -110 44t-44 109q0 76 60 134.5t137 58.5q65 0 109 -44t44 -110zM881 1282q0 -75 -60 -133.5t-135 -58.5q-66 0 -110 44t-44 109q0 76 59.5 134.5t135.5 58.5q66 0 110 -44t44 -110zM1157 0h-371l-18 553l-260 -553
h-371l-43 989h346l-6 -551l260 551h316l22 -551l240 551h366z" />
    <glyph glyph-name="uni1EA0" unicode="&#x1ea0;" horiz-adv-x="1222" 
d="M1137 0h-406v176h-354l-78 -176h-434l702 1366h469zM731 514l-2 453l-201 -453h203zM631 -229q0 -75 -61 -134t-136 -59q-66 0 -109.5 44.5t-43.5 109.5q0 76 59.5 134t136.5 58q65 0 109.5 -43.5t44.5 -109.5z" />
    <glyph glyph-name="uni1EA1" unicode="&#x1ea1;" horiz-adv-x="1083" 
d="M487 1014q181 0 248 -133l25 108h344l-219 -989h-344l24 106q-106 -131 -241 -131q-143 0 -223.5 96.5t-80.5 278.5q0 84 17.5 173.5t56 177.5t92 157.5t132 112.5t169.5 43zM561 709q-55 0 -99 -50t-64.5 -116.5t-20.5 -128.5q0 -61 34 -97t89 -36q64 0 118 67l66 293
q-40 68 -123 68zM543 -229q0 -75 -61 -134t-136 -59q-66 0 -109.5 44.5t-43.5 109.5q0 76 59.5 134t136.5 58q65 0 109.5 -43.5t44.5 -109.5z" />
    <glyph glyph-name="uni1EA2" unicode="&#x1ea2;" horiz-adv-x="1222" 
d="M1137 0h-406v176h-354l-78 -176h-434l702 1366h469zM731 514l-2 453l-201 -453h203zM795 1538l-103 39q48 102 164 102q63 0 106.5 -32t43.5 -93q0 -62 -45 -127h-134q46 52 52 101q3 47 -35 47q-30 0 -49 -37z" />
    <glyph glyph-name="uni1EA3" unicode="&#x1ea3;" horiz-adv-x="1083" 
d="M487 1014q181 0 248 -133l25 108h344l-219 -989h-344l24 106q-106 -131 -241 -131q-143 0 -223.5 96.5t-80.5 278.5q0 84 17.5 173.5t56 177.5t92 157.5t132 112.5t169.5 43zM561 709q-55 0 -99 -50t-64.5 -116.5t-20.5 -128.5q0 -61 34 -97t89 -36q64 0 118 67l66 293
q-40 68 -123 68zM637 1190l-102 39q48 102 163 102q63 0 106.5 -32t43.5 -93q0 -62 -45 -127h-133q45 51 51 101q3 47 -35 47q-30 0 -49 -37z" />
    <glyph glyph-name="uni1EA4" unicode="&#x1ea4;" horiz-adv-x="1222" 
d="M1108 1397h-190l-80 116l-142 -116h-198l217 221h301zM1137 0h-406v176h-354l-78 -176h-434l702 1366h469zM731 514l-2 453l-201 -453h203zM1638 1726l-338 -221h-227l270 221h295z" />
    <glyph glyph-name="uni1EA5" unicode="&#x1ea5;" horiz-adv-x="1083" 
d="M487 1014q181 0 248 -133l25 108h344l-219 -989h-344l24 106q-106 -131 -241 -131q-143 0 -223.5 96.5t-80.5 278.5q0 84 17.5 173.5t56 177.5t92 157.5t132 112.5t169.5 43zM561 709q-55 0 -99 -50t-64.5 -116.5t-20.5 -128.5q0 -61 34 -97t89 -36q64 0 118 67l66 293
q-40 68 -123 68zM979 1139h-191l-79 155l-142 -155h-198l217 295h301zM1509 1577l-338 -295h-227l270 295h295z" />
    <glyph glyph-name="uni1EA6" unicode="&#x1ea6;" horiz-adv-x="1222" 
d="M1108 1397h-190l-80 116l-142 -116h-198l217 221h301zM1137 0h-406v176h-354l-78 -176h-434l702 1366h469zM731 514l-2 453l-201 -453h203zM590 1505h-221l-209 221h291z" />
    <glyph glyph-name="uni1EA7" unicode="&#x1ea7;" horiz-adv-x="1083" 
d="M487 1014q181 0 248 -133l25 108h344l-219 -989h-344l24 106q-106 -131 -241 -131q-143 0 -223.5 96.5t-80.5 278.5q0 84 17.5 173.5t56 177.5t92 157.5t132 112.5t169.5 43zM561 709q-55 0 -99 -50t-64.5 -116.5t-20.5 -128.5q0 -61 34 -97t89 -36q64 0 118 67l66 293
q-40 68 -123 68zM979 1139h-191l-79 155l-142 -155h-198l217 295h301zM461 1282h-221l-209 295h291z" />
    <glyph glyph-name="uni1EA8" unicode="&#x1ea8;" horiz-adv-x="1222" 
d="M1108 1397h-190l-80 116l-142 -116h-198l217 221h301zM1137 0h-406v176h-354l-78 -176h-434l702 1366h469zM731 514l-2 453l-201 -453h203zM1053 1632l-103 29q48 76 164 76q63 0 106.5 -23.5t43.5 -68.5t-45 -97h-134q46 40 52 76q2 16 -7.5 25.5t-27.5 9.5
q-29 0 -49 -27z" />
    <glyph glyph-name="uni1EA9" unicode="&#x1ea9;" horiz-adv-x="1083" 
d="M487 1014q181 0 248 -133l25 108h344l-219 -989h-344l24 106q-106 -131 -241 -131q-143 0 -223.5 96.5t-80.5 278.5q0 84 17.5 173.5t56 177.5t92 157.5t132 112.5t169.5 43zM561 709q-55 0 -99 -50t-64.5 -116.5t-20.5 -128.5q0 -61 34 -97t89 -36q64 0 118 67l66 293
q-40 68 -123 68zM979 1139h-191l-79 155l-142 -155h-198l217 295h301zM907 1477l-102 39q48 102 164 102q63 0 106 -32t43 -93q0 -62 -45 -127h-133q45 51 51 100q3 47 -35 47q-30 0 -49 -36z" />
    <glyph glyph-name="uni1EAA" unicode="&#x1eaa;" horiz-adv-x="1222" 
d="M1102 1391h-191l-80 77l-141 -77h-198l217 147h301zM1137 0h-406v176h-354l-78 -176h-434l702 1366h469zM731 514l-2 453l-201 -453h203zM969 1552q-55 0 -92.5 12.5t-64.5 25t-56 12.5q-44 0 -62 -43h-174q29 68 88 102.5t162 34.5q55 0 93 -12t65.5 -24.5t56.5 -12.5
q43 0 62 43h174q-30 -69 -90 -103.5t-162 -34.5z" />
    <glyph glyph-name="uni1EAB" unicode="&#x1eab;" horiz-adv-x="1083" 
d="M487 1014q181 0 248 -133l25 108h344l-219 -989h-344l24 106q-106 -131 -241 -131q-143 0 -223.5 96.5t-80.5 278.5q0 84 17.5 173.5t56 177.5t92 157.5t132 112.5t169.5 43zM561 709q-55 0 -99 -50t-64.5 -116.5t-20.5 -128.5q0 -61 34 -97t89 -36q64 0 118 67l66 293
q-40 68 -123 68zM965 1071h-191l-80 156l-141 -156h-199l217 295h301zM862 1397q-44 0 -77.5 15.5t-50 33.5t-39 33.5t-46.5 15.5q-44 0 -61 -86h-174q29 137 88 205.5t162 68.5q44 0 77.5 -15.5t50.5 -33.5t40 -33.5t47 -15.5q41 0 61 86h174q-30 -137 -90 -205.5
t-162 -68.5z" />
    <glyph glyph-name="uni1EAC" unicode="&#x1eac;" horiz-adv-x="1222" 
d="M1137 0h-406v176h-354l-78 -176h-434l702 1366h469zM731 514l-2 453l-201 -453h203zM1135 1481h-191l-80 155l-141 -155h-199l217 295h301zM627 -229q0 -75 -61 -134t-136 -59q-66 0 -110 44.5t-44 109.5q0 76 60 134t137 58q65 0 109.5 -43.5t44.5 -109.5z" />
    <glyph glyph-name="uni1EAD" unicode="&#x1ead;" horiz-adv-x="1083" 
d="M487 1014q181 0 248 -133l25 108h344l-219 -989h-344l24 106q-106 -131 -241 -131q-143 0 -223.5 96.5t-80.5 278.5q0 84 17.5 173.5t56 177.5t92 157.5t132 112.5t169.5 43zM561 709q-55 0 -99 -50t-64.5 -116.5t-20.5 -128.5q0 -61 34 -97t89 -36q64 0 118 67l66 293
q-40 68 -123 68zM979 1139h-191l-79 155l-142 -155h-198l217 295h301zM543 -229q0 -75 -61 -134t-136 -59q-66 0 -109.5 44.5t-43.5 109.5q0 76 59.5 134t136.5 58q65 0 109.5 -43.5t44.5 -109.5z" />
    <glyph glyph-name="uni1EAE" unicode="&#x1eae;" horiz-adv-x="1222" 
d="M1137 0h-406v176h-354l-78 -176h-434l702 1366h469zM731 514l-2 453l-201 -453h203zM1260 1694l-338 -154h-228l271 154h295zM1135 1477q-149 -86 -344 -86q-94 0 -167 23t-112 63l168 61q42 -45 143 -45q104 0 183 45z" />
    <glyph glyph-name="uni1EAF" unicode="&#x1eaf;" horiz-adv-x="1083" 
d="M487 1014q181 0 248 -133l25 108h344l-219 -989h-344l24 106q-106 -131 -241 -131q-143 0 -223.5 96.5t-80.5 278.5q0 84 17.5 173.5t56 177.5t92 157.5t132 112.5t169.5 43zM561 709q-55 0 -99 -50t-64.5 -116.5t-20.5 -128.5q0 -61 34 -97t89 -36q64 0 118 67l66 293
q-40 68 -123 68zM1145 1616l-338 -295h-227l270 295h295zM997 1204q-70 -74 -160 -115.5t-184 -41.5t-166.5 41.5t-111.5 115.5l168 117q42 -86 143 -86q102 0 182 86z" />
    <glyph glyph-name="uni1EB0" unicode="&#x1eb0;" horiz-adv-x="1222" 
d="M1137 0h-406v176h-354l-78 -176h-434l702 1366h469zM731 514l-2 453l-201 -453h203zM983 1540h-221l-209 154h291zM1149 1477q-149 -86 -344 -86q-94 0 -167 23t-112 63l168 61q42 -45 144 -45q103 0 182 45z" />
    <glyph glyph-name="uni1EB1" unicode="&#x1eb1;" horiz-adv-x="1083" 
d="M487 1014q181 0 248 -133l25 108h344l-219 -989h-344l24 106q-106 -131 -241 -131q-143 0 -223.5 96.5t-80.5 278.5q0 84 17.5 173.5t56 177.5t92 157.5t132 112.5t169.5 43zM561 709q-55 0 -99 -50t-64.5 -116.5t-20.5 -128.5q0 -61 34 -97t89 -36q64 0 118 67l66 293
q-40 68 -123 68zM836 1325h-222l-208 295h290zM997 1204q-70 -74 -160 -115.5t-184 -41.5t-166.5 41.5t-111.5 115.5l168 117q42 -86 143 -86q102 0 182 86z" />
    <glyph glyph-name="uni1EB2" unicode="&#x1eb2;" horiz-adv-x="1222" 
d="M1137 0h-406v176h-354l-78 -176h-434l702 1366h469zM731 514l-2 453l-201 -453h203zM813 1597l-102 21q50 53 163 53q63 0 106.5 -16.5t43.5 -48.5q0 -16 -14 -35t-31 -31h-133q44 24 51 51q3 25 -35 25q-30 0 -49 -19zM1147 1477q-149 -86 -344 -86q-94 0 -167 23
t-112 63l168 61q42 -45 144 -45q103 0 182 45z" />
    <glyph glyph-name="uni1EB3" unicode="&#x1eb3;" horiz-adv-x="1083" 
d="M487 1014q181 0 248 -133l25 108h344l-219 -989h-344l24 106q-106 -131 -241 -131q-143 0 -223.5 96.5t-80.5 278.5q0 84 17.5 173.5t56 177.5t92 157.5t132 112.5t169.5 43zM561 709q-55 0 -99 -50t-64.5 -116.5t-20.5 -128.5q0 -61 34 -97t89 -36q64 0 118 67l66 293
q-40 68 -123 68zM680 1450l-102 39q48 102 163 102q63 0 106.5 -32t43.5 -93q0 -62 -45 -127h-133q45 51 51 101q3 47 -35 47q-30 0 -49 -37zM997 1204q-70 -74 -160 -115.5t-184 -41.5t-166.5 41.5t-111.5 115.5l168 117q42 -86 143 -86q102 0 182 86z" />
    <glyph glyph-name="uni1EB4" unicode="&#x1eb4;" horiz-adv-x="1222" 
d="M1137 0h-406v176h-354l-78 -176h-434l702 1366h469zM731 514l-2 453l-201 -453h203zM1143 1473q-154 -82 -344 -82q-93 0 -166.5 22t-112.5 60l168 61q42 -45 143 -45q104 0 183 45zM967 1556q-55 0 -92.5 12.5t-64.5 25t-56 12.5q-44 0 -62 -43h-174q29 68 88 102.5
t162 34.5q55 0 93 -12t65.5 -24.5t56.5 -12.5q42 0 61 43h175q-30 -69 -90 -103.5t-162 -34.5z" />
    <glyph glyph-name="uni1EB5" unicode="&#x1eb5;" horiz-adv-x="1083" 
d="M487 1014q181 0 248 -133l25 108h344l-219 -989h-344l24 106q-106 -131 -241 -131q-143 0 -223.5 96.5t-80.5 278.5q0 84 17.5 173.5t56 177.5t92 157.5t132 112.5t169.5 43zM561 709q-55 0 -99 -50t-64.5 -116.5t-20.5 -128.5q0 -61 34 -97t89 -36q64 0 118 67l66 293
q-40 68 -123 68zM997 1204q-70 -74 -160 -115.5t-184 -41.5t-166.5 41.5t-111.5 115.5l168 117q42 -86 143 -86q102 0 182 86zM852 1356q-44 0 -77.5 15.5t-50 33.5t-39 33.5t-46.5 15.5q-44 0 -61 -86h-175q29 137 88 205.5t162 68.5q44 0 77.5 -15.5t50.5 -33.5t40 -33.5
t47 -15.5q42 0 62 86h174q-30 -137 -90 -205.5t-162 -68.5z" />
    <glyph glyph-name="uni1EB6" unicode="&#x1eb6;" horiz-adv-x="1222" 
d="M1137 0h-406v176h-354l-78 -176h-434l702 1366h469zM731 514l-2 453l-201 -453h203zM631 -229q0 -75 -61 -134t-136 -59q-66 0 -109.5 44.5t-43.5 109.5q0 76 59.5 134t136.5 58q65 0 109.5 -43.5t44.5 -109.5zM1157 1587q-70 -74 -160 -115.5t-184 -41.5t-166.5 41.5
t-111.5 115.5l167 117q42 -86 144 -86t182 86z" />
    <glyph glyph-name="uni1EB7" unicode="&#x1eb7;" horiz-adv-x="1083" 
d="M487 1014q181 0 248 -133l25 108h344l-219 -989h-344l24 106q-106 -131 -241 -131q-143 0 -223.5 96.5t-80.5 278.5q0 84 17.5 173.5t56 177.5t92 157.5t132 112.5t169.5 43zM561 709q-55 0 -99 -50t-64.5 -116.5t-20.5 -128.5q0 -61 34 -97t89 -36q64 0 118 67l66 293
q-40 68 -123 68zM541 -229q0 -75 -61 -134t-136 -59q-66 0 -110 44.5t-44 109.5q0 76 60 134t137 58q65 0 109.5 -43.5t44.5 -109.5zM1004 1245q-70 -74 -160.5 -116t-184.5 -42t-166.5 42t-111.5 116l168 117q42 -86 143 -86q102 0 182 86z" />
    <glyph glyph-name="uni1EB8" unicode="&#x1eb8;" 
d="M850 0h-864l303 1366h862l-76 -338h-473l-37 -168h461l-76 -338h-461l-38 -184h473zM539 -229q0 -75 -61 -134t-136 -59q-66 0 -110 44.5t-44 109.5q0 76 60 134t137 58q65 0 109.5 -43.5t44.5 -109.5z" />
    <glyph glyph-name="uni1EB9" unicode="&#x1eb9;" horiz-adv-x="1001" 
d="M492 -25q-216 0 -341.5 113.5t-125.5 314.5q0 113 39 222.5t108 196t173 139.5t224 53q189 0 299.5 -110t110.5 -300q0 -101 -33 -219h-592v-16q0 -12 9.5 -31t29.5 -40.5t58.5 -36.5t87.5 -15q113 0 188 55l107 -219q-67 -51 -159.5 -79t-182.5 -28zM395 612h275
q2 8 2 27q0 40 -32.5 73t-90.5 33q-63 0 -104 -42.5t-50 -90.5zM541 -229q0 -75 -61 -134t-136 -59q-66 0 -110 44.5t-44 109.5q0 76 60 134t137 58q65 0 109.5 -43.5t44.5 -109.5z" />
    <glyph glyph-name="uni1EBA" unicode="&#x1eba;" 
d="M850 0h-864l303 1366h862l-76 -338h-473l-37 -168h461l-76 -338h-461l-38 -184h473zM709 1538l-103 39q48 102 164 102q63 0 106.5 -32t43.5 -93q0 -60 -46 -127h-133q46 52 52 101q3 47 -35 47q-30 0 -49 -37z" />
    <glyph glyph-name="uni1EBB" unicode="&#x1ebb;" horiz-adv-x="1001" 
d="M492 -25q-216 0 -341.5 113.5t-125.5 314.5q0 113 39 222.5t108 196t173 139.5t224 53q189 0 299.5 -110t110.5 -300q0 -101 -33 -219h-592v-16q0 -12 9.5 -31t29.5 -40.5t58.5 -36.5t87.5 -15q113 0 188 55l107 -219q-67 -51 -159.5 -79t-182.5 -28zM395 612h275
q2 8 2 27q0 40 -32.5 73t-90.5 33q-63 0 -104 -42.5t-50 -90.5zM635 1190l-103 39q48 102 164 102q63 0 106.5 -32t43.5 -93q0 -62 -45 -127h-133q45 51 51 101q3 47 -35 47q-30 0 -49 -37z" />
    <glyph glyph-name="uni1EBC" unicode="&#x1ebc;" 
d="M850 0h-864l303 1366h862l-76 -338h-473l-37 -168h461l-76 -338h-461l-38 -184h473zM877 1477q-44 0 -77.5 15.5t-50 33.5t-39 33.5t-46.5 15.5q-45 0 -62 -86h-174q29 137 88 205.5t162 68.5q44 0 77.5 -15.5t50.5 -33.5t40 -33.5t47 -15.5q41 0 61 86h174
q-30 -137 -89.5 -205.5t-161.5 -68.5z" />
    <glyph glyph-name="uni1EBD" unicode="&#x1ebd;" horiz-adv-x="1001" 
d="M492 -25q-216 0 -341.5 113.5t-125.5 314.5q0 113 39 222.5t108 196t173 139.5t224 53q189 0 299.5 -110t110.5 -300q0 -101 -33 -219h-592v-16q0 -12 9.5 -31t29.5 -40.5t58.5 -36.5t87.5 -15q113 0 188 55l107 -219q-67 -51 -159.5 -79t-182.5 -28zM395 612h275
q2 8 2 27q0 40 -32.5 73t-90.5 33q-63 0 -104 -42.5t-50 -90.5zM803 1135q-44 0 -77.5 15.5t-50 33.5t-39 33.5t-46.5 15.5q-45 0 -62 -86h-174q29 137 88 205.5t162 68.5q44 0 77.5 -15.5t50.5 -33.5t40 -33.5t47 -15.5q42 0 62 86h174q-30 -137 -90 -205.5t-162 -68.5z
" />
    <glyph glyph-name="uni1EBE" unicode="&#x1ebe;" 
d="M1024 1397h-190l-80 116l-142 -116h-198l217 221h301zM1559 1726l-338 -221h-228l271 221h295zM850 0h-864l303 1366h862l-76 -338h-473l-37 -168h461l-76 -338h-461l-38 -184h473z" />
    <glyph glyph-name="uni1EBF" unicode="&#x1ebf;" horiz-adv-x="1001" 
d="M975 1139h-191l-79 155l-142 -155h-198l217 295h301zM1503 1577l-338 -295h-227l270 295h295zM492 -25q-216 0 -341.5 113.5t-125.5 314.5q0 113 39 222.5t108 196t173 139.5t224 53q189 0 299.5 -110t110.5 -300q0 -101 -33 -219h-592v-16q0 -12 9.5 -31t29.5 -40.5
t58.5 -36.5t87.5 -15q113 0 188 55l107 -219q-67 -51 -159.5 -79t-182.5 -28zM395 612h275q2 8 2 27q0 40 -32.5 73t-90.5 33q-63 0 -104 -42.5t-50 -90.5z" />
    <glyph glyph-name="uni1EC0" unicode="&#x1ec0;" 
d="M1024 1397h-190l-80 116l-142 -116h-198l217 221h301zM850 0h-864l303 1366h862l-76 -338h-473l-37 -168h461l-76 -338h-461l-38 -184h473zM506 1505h-221l-209 221h291z" />
    <glyph glyph-name="uni1EC1" unicode="&#x1ec1;" horiz-adv-x="1001" 
d="M977 1139h-191l-79 155l-142 -155h-198l217 295h301zM492 -25q-216 0 -341.5 113.5t-125.5 314.5q0 113 39 222.5t108 196t173 139.5t224 53q189 0 299.5 -110t110.5 -300q0 -101 -33 -219h-592v-16q0 -12 9.5 -31t29.5 -40.5t58.5 -36.5t87.5 -15q113 0 188 55l107 -219
q-67 -51 -159.5 -79t-182.5 -28zM395 612h275q2 8 2 27q0 40 -32.5 73t-90.5 33q-63 0 -104 -42.5t-50 -90.5zM459 1282h-221l-209 295h290z" />
    <glyph glyph-name="uni1EC2" unicode="&#x1ec2;" 
d="M1022 1397h-191l-79 116l-142 -116h-198l217 221h301zM850 0h-864l303 1366h862l-76 -338h-473l-37 -168h461l-76 -338h-461l-38 -184h473zM967 1632l-103 29q48 76 164 76q63 0 106.5 -23.5t43.5 -68.5t-45 -97h-134q46 40 52 76q2 16 -7.5 25.5t-27.5 9.5
q-29 0 -49 -27z" />
    <glyph glyph-name="uni1EC3" unicode="&#x1ec3;" horiz-adv-x="1001" 
d="M979 1139h-191l-79 155l-142 -155h-198l217 295h301zM492 -25q-216 0 -341.5 113.5t-125.5 314.5q0 113 39 222.5t108 196t173 139.5t224 53q189 0 299.5 -110t110.5 -300q0 -101 -33 -219h-592v-16q0 -12 9.5 -31t29.5 -40.5t58.5 -36.5t87.5 -15q113 0 188 55l107 -219
q-67 -51 -159.5 -79t-182.5 -28zM395 612h275q2 8 2 27q0 40 -32.5 73t-90.5 33q-63 0 -104 -42.5t-50 -90.5zM907 1477l-102 39q48 102 164 102q63 0 106 -32t43 -93q0 -62 -45 -127h-133q45 51 51 100q3 47 -35 47q-30 0 -49 -36z" />
    <glyph glyph-name="uni1EC4" unicode="&#x1ec4;" 
d="M1016 1389h-191l-80 77l-141 -77h-198l217 147h301zM850 0h-864l303 1366h862l-76 -338h-473l-37 -168h461l-76 -338h-461l-38 -184h473zM879 1550q-55 0 -92.5 12t-64.5 24.5t-56 12.5q-44 0 -62 -43h-174q29 69 88.5 103.5t161.5 34.5q55 0 93 -12t65.5 -24.5
t56.5 -12.5q42 0 61 43h174q-31 -69 -90 -103.5t-161 -34.5z" />
    <glyph glyph-name="uni1EC5" unicode="&#x1ec5;" horiz-adv-x="1001" 
d="M965 1071h-191l-80 156l-141 -156h-199l217 295h301zM492 -25q-216 0 -341.5 113.5t-125.5 314.5q0 113 39 222.5t108 196t173 139.5t224 53q189 0 299.5 -110t110.5 -300q0 -101 -33 -219h-592v-16q0 -12 9.5 -31t29.5 -40.5t58.5 -36.5t87.5 -15q113 0 188 55l107 -219
q-67 -51 -159.5 -79t-182.5 -28zM395 612h275q2 8 2 27q0 40 -32.5 73t-90.5 33q-63 0 -104 -42.5t-50 -90.5zM862 1397q-44 0 -77.5 15.5t-50 33.5t-39 33.5t-46.5 15.5q-44 0 -61 -86h-174q29 137 88 205.5t162 68.5q44 0 77.5 -15.5t50.5 -33.5t40 -33.5t47 -15.5
q41 0 61 86h174q-30 -137 -90 -205.5t-162 -68.5z" />
    <glyph glyph-name="uni1EC6" unicode="&#x1ec6;" 
d="M1051 1481h-191l-80 155l-141 -155h-199l217 295h301zM850 0h-864l303 1366h862l-76 -338h-473l-37 -168h461l-76 -338h-461l-38 -184h473zM543 -229q0 -75 -61 -134t-136 -59q-66 0 -109.5 44.5t-43.5 109.5q0 76 59.5 134t136.5 58q65 0 109.5 -43.5t44.5 -109.5z" />
    <glyph glyph-name="uni1EC7" unicode="&#x1ec7;" horiz-adv-x="1001" 
d="M979 1139h-191l-79 155l-142 -155h-198l217 295h301zM492 -25q-216 0 -341.5 113.5t-125.5 314.5q0 113 39 222.5t108 196t173 139.5t224 53q189 0 299.5 -110t110.5 -300q0 -101 -33 -219h-592v-16q0 -12 9.5 -31t29.5 -40.5t58.5 -36.5t87.5 -15q113 0 188 55l107 -219
q-67 -51 -159.5 -79t-182.5 -28zM395 612h275q2 8 2 27q0 40 -32.5 73t-90.5 33q-63 0 -104 -42.5t-50 -90.5zM541 -229q0 -75 -61 -134t-136 -59q-66 0 -110 44.5t-44 109.5q0 76 60 134t137 58q65 0 109.5 -43.5t44.5 -109.5z" />
    <glyph glyph-name="uni1EC8" unicode="&#x1ec8;" horiz-adv-x="583" 
d="M375 0h-389l303 1366h387zM471 1538l-102 39q48 102 163 102q63 0 106.5 -32t43.5 -93q0 -62 -45 -127h-133q45 51 51 101q3 47 -35 47q-30 0 -49 -37z" />
    <glyph glyph-name="uni1EC9" unicode="&#x1ec9;" horiz-adv-x="520" 
d="M324 0h-349l222 989h346zM362 1190l-102 39q48 102 164 102q63 0 106 -32t43 -93q0 -62 -45 -127h-133q45 51 51 101q3 47 -34 47q-31 0 -50 -37z" />
    <glyph glyph-name="uni1ECA" unicode="&#x1eca;" horiz-adv-x="583" 
d="M375 0h-389l303 1366h387zM301 -229q0 -75 -61 -134t-136 -59q-66 0 -109.5 44.5t-43.5 109.5q0 76 59.5 134t136.5 58q65 0 109.5 -43.5t44.5 -109.5z" />
    <glyph glyph-name="uni1ECB" unicode="&#x1ecb;" horiz-adv-x="520" 
d="M406 1069q-75 0 -126 49t-51 117q0 101 70 163t152 62q75 0 125.5 -48.5t50.5 -117.5q0 -101 -69.5 -163t-151.5 -62zM324 0h-349l222 989h346zM272 -229q0 -75 -60.5 -134t-135.5 -59q-66 0 -110 44.5t-44 109.5q0 76 60 134t137 58q65 0 109 -43.5t44 -109.5z" />
    <glyph glyph-name="uni1ECC" unicode="&#x1ecc;" horiz-adv-x="1318" 
d="M623 -25q-259 0 -415.5 155t-156.5 400q0 129 30 253t91.5 233.5t147 192.5t204 131.5t254.5 48.5q256 0 413 -155.5t157 -397.5q0 -129 -30 -253.5t-91.5 -234.5t-147 -193t-203.5 -131.5t-253 -48.5zM641 317q88 0 160.5 79t110.5 194t38 233q0 99 -52.5 161.5
t-141.5 62.5q-88 0 -160 -79t-109.5 -194t-37.5 -233q0 -99 51.5 -161.5t140.5 -62.5zM668 -229q0 -75 -61 -134t-136 -59q-66 0 -110 44.5t-44 109.5q0 76 60 134t137 58q65 0 109.5 -43.5t44.5 -109.5z" />
    <glyph glyph-name="uni1ECD" unicode="&#x1ecd;" horiz-adv-x="1052" 
d="M479 -25q-220 0 -337 119.5t-117 313.5q0 111 39 219t107.5 194.5t172.5 139.5t225 53q221 0 339 -119t118 -313q0 -89 -24 -176.5t-72 -165t-113 -137t-152.5 -94t-185.5 -34.5zM496 281q54 0 97.5 53.5t63 119.5t19.5 124q0 131 -123 131q-53 0 -96 -53t-62.5 -119.5
t-19.5 -122.5q0 -66 31.5 -99.5t89.5 -33.5zM537 -229q0 -75 -61 -134t-136 -59q-66 0 -110 44.5t-44 109.5q0 76 60 134t137 58q65 0 109.5 -43.5t44.5 -109.5z" />
    <glyph glyph-name="uni1ECE" unicode="&#x1ece;" horiz-adv-x="1318" 
d="M623 -25q-259 0 -415.5 155t-156.5 400q0 129 30 253t91.5 233.5t147 192.5t204 131.5t254.5 48.5q256 0 413 -155.5t157 -397.5q0 -129 -30 -253.5t-91.5 -234.5t-147 -193t-203.5 -131.5t-253 -48.5zM641 317q88 0 160.5 79t110.5 194t38 233q0 99 -52.5 161.5
t-141.5 62.5q-88 0 -160 -79t-109.5 -194t-37.5 -233q0 -99 51.5 -161.5t140.5 -62.5zM840 1538l-103 39q48 102 164 102q63 0 106.5 -32t43.5 -93q0 -62 -45 -127h-134q46 52 52 101q3 47 -35 47q-30 0 -49 -37z" />
    <glyph glyph-name="uni1ECF" unicode="&#x1ecf;" horiz-adv-x="1052" 
d="M479 -25q-220 0 -337 119.5t-117 313.5q0 111 39 219t107.5 194.5t172.5 139.5t225 53q221 0 339 -119t118 -313q0 -89 -24 -176.5t-72 -165t-113 -137t-152.5 -94t-185.5 -34.5zM496 281q54 0 97.5 53.5t63 119.5t19.5 124q0 131 -123 131q-53 0 -96 -53t-62.5 -119.5
t-19.5 -122.5q0 -66 31.5 -99.5t89.5 -33.5zM631 1190l-103 39q48 102 164 102q63 0 106.5 -32t43.5 -93q0 -62 -45 -127h-133q45 51 51 101q3 47 -35 47q-30 0 -49 -37z" />
    <glyph glyph-name="uni1ED0" unicode="&#x1ed0;" horiz-adv-x="1318" 
d="M1153 1397h-190l-80 116l-142 -116h-198l217 221h301zM1683 1726l-337 -221h-228l271 221h294zM623 -25q-259 0 -415.5 155t-156.5 400q0 129 30 253t91.5 233.5t147 192.5t204 131.5t254.5 48.5q256 0 413 -155.5t157 -397.5q0 -129 -30 -253.5t-91.5 -234.5t-147 -193
t-203.5 -131.5t-253 -48.5zM641 317q88 0 160.5 79t110.5 194t38 233q0 99 -52.5 161.5t-141.5 62.5q-88 0 -160 -79t-109.5 -194t-37.5 -233q0 -99 51.5 -161.5t140.5 -62.5z" />
    <glyph glyph-name="uni1ED1" unicode="&#x1ed1;" horiz-adv-x="1052" 
d="M973 1139h-191l-80 155l-141 -155h-199l218 295h301zM1501 1577l-338 -295h-227l270 295h295zM479 -25q-220 0 -337 119.5t-117 313.5q0 111 39 219t107.5 194.5t172.5 139.5t225 53q221 0 339 -119t118 -313q0 -89 -24 -176.5t-72 -165t-113 -137t-152.5 -94
t-185.5 -34.5zM496 281q54 0 97.5 53.5t63 119.5t19.5 124q0 131 -123 131q-53 0 -96 -53t-62.5 -119.5t-19.5 -122.5q0 -66 31.5 -99.5t89.5 -33.5z" />
    <glyph glyph-name="uni1ED2" unicode="&#x1ed2;" horiz-adv-x="1318" 
d="M1153 1397h-190l-80 116l-142 -116h-198l217 221h301zM623 -25q-259 0 -415.5 155t-156.5 400q0 129 30 253t91.5 233.5t147 192.5t204 131.5t254.5 48.5q256 0 413 -155.5t157 -397.5q0 -129 -30 -253.5t-91.5 -234.5t-147 -193t-203.5 -131.5t-253 -48.5zM641 317
q88 0 160.5 79t110.5 194t38 233q0 99 -52.5 161.5t-141.5 62.5q-88 0 -160 -79t-109.5 -194t-37.5 -233q0 -99 51.5 -161.5t140.5 -62.5zM635 1505h-221l-209 221h291z" />
    <glyph glyph-name="uni1ED3" unicode="&#x1ed3;" horiz-adv-x="1052" 
d="M973 1139h-191l-80 155l-141 -155h-199l218 295h301zM479 -25q-220 0 -337 119.5t-117 313.5q0 111 39 219t107.5 194.5t172.5 139.5t225 53q221 0 339 -119t118 -313q0 -89 -24 -176.5t-72 -165t-113 -137t-152.5 -94t-185.5 -34.5zM496 281q54 0 97.5 53.5t63 119.5
t19.5 124q0 131 -123 131q-53 0 -96 -53t-62.5 -119.5t-19.5 -122.5q0 -66 31.5 -99.5t89.5 -33.5zM455 1282h-222l-208 295h290z" />
    <glyph glyph-name="uni1ED4" unicode="&#x1ed4;" horiz-adv-x="1318" 
d="M1153 1397h-190l-80 116l-142 -116h-198l217 221h301zM623 -25q-259 0 -415.5 155t-156.5 400q0 129 30 253t91.5 233.5t147 192.5t204 131.5t254.5 48.5q256 0 413 -155.5t157 -397.5q0 -129 -30 -253.5t-91.5 -234.5t-147 -193t-203.5 -131.5t-253 -48.5zM641 317
q88 0 160.5 79t110.5 194t38 233q0 99 -52.5 161.5t-141.5 62.5q-88 0 -160 -79t-109.5 -194t-37.5 -233q0 -99 51.5 -161.5t140.5 -62.5zM1100 1632l-103 29q48 76 164 76q63 0 106.5 -23.5t43.5 -68.5t-45 -97h-133q45 39 51 76q2 16 -7.5 25.5t-27.5 9.5q-29 0 -49 -27z
" />
    <glyph glyph-name="uni1ED5" unicode="&#x1ed5;" horiz-adv-x="1052" 
d="M973 1139h-191l-80 155l-141 -155h-199l218 295h301zM479 -25q-220 0 -337 119.5t-117 313.5q0 111 39 219t107.5 194.5t172.5 139.5t225 53q221 0 339 -119t118 -313q0 -89 -24 -176.5t-72 -165t-113 -137t-152.5 -94t-185.5 -34.5zM496 281q54 0 97.5 53.5t63 119.5
t19.5 124q0 131 -123 131q-53 0 -96 -53t-62.5 -119.5t-19.5 -122.5q0 -66 31.5 -99.5t89.5 -33.5zM901 1477l-102 39q48 102 164 102q63 0 106 -32t43 -93q0 -62 -45 -127h-133q45 51 51 100q3 47 -35 47q-30 0 -49 -36z" />
    <glyph glyph-name="uni1ED6" unicode="&#x1ed6;" horiz-adv-x="1318" 
d="M1141 1389h-191l-80 77l-141 -77h-199l218 147h301zM623 -25q-259 0 -415.5 155t-156.5 400q0 129 30 253t91.5 233.5t147 192.5t204 131.5t254.5 48.5q256 0 413 -155.5t157 -397.5q0 -129 -30 -253.5t-91.5 -234.5t-147 -193t-203.5 -131.5t-253 -48.5zM641 317
q88 0 160.5 79t110.5 194t38 233q0 99 -52.5 161.5t-141.5 62.5q-88 0 -160 -79t-109.5 -194t-37.5 -233q0 -99 51.5 -161.5t140.5 -62.5zM1004 1550q-55 0 -92.5 12t-64.5 24.5t-56 12.5q-44 0 -62 -43h-174q29 69 88.5 103.5t161.5 34.5q55 0 93 -12t65.5 -24.5
t56.5 -12.5q42 0 61 43h174q-31 -69 -90 -103.5t-161 -34.5z" />
    <glyph glyph-name="uni1ED7" unicode="&#x1ed7;" horiz-adv-x="1052" 
d="M961 1071h-191l-80 156l-141 -156h-199l217 295h301zM479 -25q-220 0 -337 119.5t-117 313.5q0 111 39 219t107.5 194.5t172.5 139.5t225 53q221 0 339 -119t118 -313q0 -89 -24 -176.5t-72 -165t-113 -137t-152.5 -94t-185.5 -34.5zM496 281q54 0 97.5 53.5t63 119.5
t19.5 124q0 131 -123 131q-53 0 -96 -53t-62.5 -119.5t-19.5 -122.5q0 -66 31.5 -99.5t89.5 -33.5zM858 1397q-44 0 -77.5 15.5t-50 33.5t-39 33.5t-46.5 15.5q-44 0 -61 -86h-174q29 137 88 205.5t161 68.5q44 0 77.5 -15.5t50.5 -33.5t40 -33.5t47 -15.5q42 0 62 86h174
q-30 -137 -90 -205.5t-162 -68.5z" />
    <glyph glyph-name="uni1ED8" unicode="&#x1ed8;" horiz-adv-x="1318" 
d="M1180 1481h-191l-80 155l-141 -155h-199l217 295h301zM623 -25q-259 0 -415.5 155t-156.5 400q0 129 30 253t91.5 233.5t147 192.5t204 131.5t254.5 48.5q256 0 413 -155.5t157 -397.5q0 -129 -30 -253.5t-91.5 -234.5t-147 -193t-203.5 -131.5t-253 -48.5zM641 317
q88 0 160.5 79t110.5 194t38 233q0 99 -52.5 161.5t-141.5 62.5q-88 0 -160 -79t-109.5 -194t-37.5 -233q0 -99 51.5 -161.5t140.5 -62.5zM672 -229q0 -75 -61 -134t-136 -59q-66 0 -109.5 44.5t-43.5 109.5q0 76 59.5 134t136.5 58q65 0 109.5 -43.5t44.5 -109.5z" />
    <glyph glyph-name="uni1ED9" unicode="&#x1ed9;" horiz-adv-x="1052" 
d="M975 1139h-191l-79 155l-142 -155h-198l217 295h301zM479 -25q-220 0 -337 119.5t-117 313.5q0 111 39 219t107.5 194.5t172.5 139.5t225 53q221 0 339 -119t118 -313q0 -89 -24 -176.5t-72 -165t-113 -137t-152.5 -94t-185.5 -34.5zM496 281q54 0 97.5 53.5t63 119.5
t19.5 124q0 131 -123 131q-53 0 -96 -53t-62.5 -119.5t-19.5 -122.5q0 -66 31.5 -99.5t89.5 -33.5zM537 -229q0 -75 -61 -134t-136 -59q-66 0 -110 44.5t-44 109.5q0 76 60 134t137 58q65 0 109.5 -43.5t44.5 -109.5z" />
    <glyph glyph-name="uni1EDA" unicode="&#x1eda;" horiz-adv-x="1318" 
d="M1311 1776l-338 -295h-228l271 295h295zM623 -25q-259 0 -415.5 155t-156.5 400q0 129 30 253t91.5 233.5t147 192.5t204 131.5t254.5 48.5q146 0 263 -53.5t192 -149.5q77 43 104 96q-4 -2 -16 -2q-44 0 -74 29t-30 82q0 59 46 102t105 43q54 0 92.5 -36.5t38.5 -100.5
q0 -84 -58.5 -167t-152.5 -136q60 -117 60 -260q0 -129 -30 -253.5t-91.5 -234.5t-147 -193t-203.5 -131.5t-253 -48.5zM641 317q88 0 160.5 79t110.5 194t38 233q0 99 -52.5 161.5t-141.5 62.5q-88 0 -160 -79t-109.5 -194t-37.5 -233q0 -99 51.5 -161.5t140.5 -62.5z" />
    <glyph glyph-name="uni1EDB" unicode="&#x1edb;" horiz-adv-x="1052" 
d="M1104 1434l-338 -295h-227l270 295h295zM1161 1126q0 -83 -55.5 -165.5t-144.5 -133.5q65 -103 65 -245q0 -89 -24 -176.5t-72 -165t-113 -137t-152.5 -94t-185.5 -34.5q-220 0 -337 119.5t-117 313.5q0 111 39 219t107.5 194.5t172.5 139.5t225 53q201 0 322 -105
q82 47 108 99q-4 -2 -16 -2q-44 0 -74 28.5t-30 81.5q0 60 46 103t105 43q54 0 92.5 -36.5t38.5 -99.5zM496 281q54 0 97.5 53.5t63 119.5t19.5 124q0 131 -123 131q-53 0 -96 -53t-62.5 -119.5t-19.5 -122.5q0 -66 31.5 -99.5t89.5 -33.5z" />
    <glyph glyph-name="uni1EDC" unicode="&#x1edc;" horiz-adv-x="1318" 
d="M623 -25q-259 0 -415.5 155t-156.5 400q0 129 30 253t91.5 233.5t147 192.5t204 131.5t254.5 48.5q146 0 263 -53.5t192 -149.5q77 43 104 96q-4 -2 -16 -2q-44 0 -74 29t-30 82q0 59 46 102t105 43q54 0 92.5 -36.5t38.5 -100.5q0 -84 -58.5 -167t-152.5 -136
q60 -117 60 -260q0 -129 -30 -253.5t-91.5 -234.5t-147 -193t-203.5 -131.5t-253 -48.5zM641 317q88 0 160.5 79t110.5 194t38 233q0 99 -52.5 161.5t-141.5 62.5q-88 0 -160 -79t-109.5 -194t-37.5 -233q0 -99 51.5 -161.5t140.5 -62.5zM999 1481h-221l-209 295h291z" />
    <glyph glyph-name="uni1EDD" unicode="&#x1edd;" horiz-adv-x="1052" 
d="M1161 1126q0 -83 -55.5 -165.5t-144.5 -133.5q65 -103 65 -245q0 -89 -24 -176.5t-72 -165t-113 -137t-152.5 -94t-185.5 -34.5q-220 0 -337 119.5t-117 313.5q0 111 39 219t107.5 194.5t172.5 139.5t225 53q201 0 322 -105q82 47 108 99q-4 -2 -16 -2q-44 0 -74 28.5
t-30 81.5q0 60 46 103t105 43q54 0 92.5 -36.5t38.5 -99.5zM496 281q54 0 97.5 53.5t63 119.5t19.5 124q0 131 -123 131q-53 0 -96 -53t-62.5 -119.5t-19.5 -122.5q0 -66 31.5 -99.5t89.5 -33.5zM795 1139h-222l-208 295h290z" />
    <glyph glyph-name="uni1EDE" unicode="&#x1ede;" horiz-adv-x="1318" 
d="M623 -25q-259 0 -415.5 155t-156.5 400q0 129 30 253t91.5 233.5t147 192.5t204 131.5t254.5 48.5q146 0 263 -53.5t192 -149.5q77 43 104 96q-4 -2 -16 -2q-44 0 -74 29t-30 82q0 59 46 102t105 43q54 0 92.5 -36.5t38.5 -100.5q0 -84 -58.5 -167t-152.5 -136
q60 -117 60 -260q0 -129 -30 -253.5t-91.5 -234.5t-147 -193t-203.5 -131.5t-253 -48.5zM641 317q88 0 160.5 79t110.5 194t38 233q0 99 -52.5 161.5t-141.5 62.5q-88 0 -160 -79t-109.5 -194t-37.5 -233q0 -99 51.5 -161.5t140.5 -62.5zM840 1538l-103 39q48 102 164 102
q63 0 106.5 -32t43.5 -93q0 -62 -45 -127h-134q46 52 52 101q3 47 -35 47q-30 0 -49 -37z" />
    <glyph glyph-name="uni1EDF" unicode="&#x1edf;" horiz-adv-x="1052" 
d="M1161 1126q0 -83 -55.5 -165.5t-144.5 -133.5q65 -103 65 -245q0 -89 -24 -176.5t-72 -165t-113 -137t-152.5 -94t-185.5 -34.5q-220 0 -337 119.5t-117 313.5q0 111 39 219t107.5 194.5t172.5 139.5t225 53q201 0 322 -105q82 47 108 99q-4 -2 -16 -2q-44 0 -74 28.5
t-30 81.5q0 60 46 103t105 43q54 0 92.5 -36.5t38.5 -99.5zM496 281q54 0 97.5 53.5t63 119.5t19.5 124q0 131 -123 131q-53 0 -96 -53t-62.5 -119.5t-19.5 -122.5q0 -66 31.5 -99.5t89.5 -33.5zM631 1190l-103 39q48 102 164 102q63 0 106.5 -32t43.5 -93q0 -62 -45 -127
h-133q45 51 51 101q3 47 -35 47q-30 0 -49 -37z" />
    <glyph glyph-name="uni1EE0" unicode="&#x1ee0;" horiz-adv-x="1318" 
d="M623 -25q-259 0 -415.5 155t-156.5 400q0 129 30 253t91.5 233.5t147 192.5t204 131.5t254.5 48.5q146 0 263 -53.5t192 -149.5q77 43 104 96q-4 -2 -16 -2q-44 0 -74 29t-30 82q0 59 46 102t105 43q54 0 92.5 -36.5t38.5 -100.5q0 -84 -58.5 -167t-152.5 -136
q60 -117 60 -260q0 -129 -30 -253.5t-91.5 -234.5t-147 -193t-203.5 -131.5t-253 -48.5zM641 317q88 0 160.5 79t110.5 194t38 233q0 99 -52.5 161.5t-141.5 62.5q-88 0 -160 -79t-109.5 -194t-37.5 -233q0 -99 51.5 -161.5t140.5 -62.5zM1008 1477q-44 0 -77.5 15.5
t-50 33.5t-39 33.5t-46.5 15.5q-45 0 -62 -86h-174q29 137 88 205.5t162 68.5q44 0 77.5 -15.5t50.5 -33.5t40 -33.5t47 -15.5q41 0 61 86h175q-30 -137 -90 -205.5t-162 -68.5z" />
    <glyph glyph-name="uni1EE1" unicode="&#x1ee1;" horiz-adv-x="1052" 
d="M1161 1126q0 -83 -55.5 -165.5t-144.5 -133.5q65 -103 65 -245q0 -89 -24 -176.5t-72 -165t-113 -137t-152.5 -94t-185.5 -34.5q-220 0 -337 119.5t-117 313.5q0 111 39 219t107.5 194.5t172.5 139.5t225 53q201 0 322 -105q82 47 108 99q-4 -2 -16 -2q-44 0 -74 28.5
t-30 81.5q0 60 46 103t105 43q54 0 92.5 -36.5t38.5 -99.5zM496 281q54 0 97.5 53.5t63 119.5t19.5 124q0 131 -123 131q-53 0 -96 -53t-62.5 -119.5t-19.5 -122.5q0 -66 31.5 -99.5t89.5 -33.5zM709 1135q-44 0 -77.5 15.5t-50 33.5t-39 33.5t-46.5 15.5q-45 0 -62 -86
h-174q29 137 88 205.5t162 68.5q44 0 77.5 -15.5t50.5 -33.5t40 -33.5t47 -15.5q41 0 61 86h175q-30 -137 -90 -205.5t-162 -68.5z" />
    <glyph glyph-name="uni1EE2" unicode="&#x1ee2;" horiz-adv-x="1318" 
d="M623 -25q-259 0 -415.5 155t-156.5 400q0 129 30 253t91.5 233.5t147 192.5t204 131.5t254.5 48.5q146 0 263 -53.5t192 -149.5q77 43 104 96q-4 -2 -16 -2q-44 0 -74 29t-30 82q0 59 46 102t105 43q54 0 92.5 -36.5t38.5 -100.5q0 -84 -58.5 -167t-152.5 -136
q60 -117 60 -260q0 -129 -30 -253.5t-91.5 -234.5t-147 -193t-203.5 -131.5t-253 -48.5zM641 317q88 0 160.5 79t110.5 194t38 233q0 99 -52.5 161.5t-141.5 62.5q-88 0 -160 -79t-109.5 -194t-37.5 -233q0 -99 51.5 -161.5t140.5 -62.5zM668 -229q0 -75 -61 -134t-136 -59
q-66 0 -110 44.5t-44 109.5q0 76 60 134t137 58q65 0 109.5 -43.5t44.5 -109.5z" />
    <glyph glyph-name="uni1EE3" unicode="&#x1ee3;" horiz-adv-x="1052" 
d="M1161 1126q0 -83 -55.5 -165.5t-144.5 -133.5q65 -103 65 -245q0 -89 -24 -176.5t-72 -165t-113 -137t-152.5 -94t-185.5 -34.5q-220 0 -337 119.5t-117 313.5q0 111 39 219t107.5 194.5t172.5 139.5t225 53q201 0 322 -105q82 47 108 99q-4 -2 -16 -2q-44 0 -74 28.5
t-30 81.5q0 60 46 103t105 43q54 0 92.5 -36.5t38.5 -99.5zM496 281q54 0 97.5 53.5t63 119.5t19.5 124q0 131 -123 131q-53 0 -96 -53t-62.5 -119.5t-19.5 -122.5q0 -66 31.5 -99.5t89.5 -33.5zM537 -229q0 -75 -61 -134t-136 -59q-66 0 -110 44.5t-44 109.5q0 76 60 134
t137 58q65 0 109.5 -43.5t44.5 -109.5z" />
    <glyph glyph-name="uni1EE4" unicode="&#x1ee4;" horiz-adv-x="1331" 
d="M627 -25q-250 0 -393.5 123t-143.5 326q0 34 8 84l191 858h391l-193 -870q-6 -36 -6 -47q2 -56 44 -96t116 -40q159 0 199 183l192 870h391l-192 -864q-54 -252 -206.5 -389.5t-397.5 -137.5zM674 -229q0 -75 -61 -134t-136 -59q-66 0 -109.5 44.5t-43.5 109.5
q0 76 59.5 134t136.5 58q65 0 109.5 -43.5t44.5 -109.5z" />
    <glyph glyph-name="uni1EE5" unicode="&#x1ee5;" horiz-adv-x="1093" 
d="M195 989h346l-131 -592q-7 -31 -7 -47q0 -32 24.5 -50.5t61.5 -18.5q74 0 142 86l139 622h346l-219 -989h-346l27 115q-130 -140 -285 -140q-123 0 -194.5 62t-71.5 160q0 3 8 67zM555 -229q0 -75 -61 -134t-136 -59q-66 0 -109.5 44.5t-43.5 109.5q0 76 59.5 134
t136.5 58q65 0 109.5 -43.5t44.5 -109.5z" />
    <glyph glyph-name="uni1EE6" unicode="&#x1ee6;" horiz-adv-x="1331" 
d="M627 -25q-250 0 -393.5 123t-143.5 326q0 34 8 84l191 858h391l-193 -870q-6 -36 -6 -47q2 -56 44 -96t116 -40q159 0 199 183l192 870h391l-192 -864q-54 -252 -206.5 -389.5t-397.5 -137.5zM846 1538l-103 39q48 102 164 102q63 0 106.5 -32t43.5 -93q0 -62 -45 -127
h-133q45 51 51 101q3 47 -35 47q-30 0 -49 -37z" />
    <glyph glyph-name="uni1EE7" unicode="&#x1ee7;" horiz-adv-x="1093" 
d="M195 989h346l-131 -592q-7 -31 -7 -47q0 -32 24.5 -50.5t61.5 -18.5q74 0 142 86l139 622h346l-219 -989h-346l27 115q-130 -140 -285 -140q-123 0 -194.5 62t-71.5 160q0 3 8 67zM649 1190l-102 39q48 102 164 102q63 0 106 -32t43 -93q0 -62 -45 -127h-133
q45 51 51 101q3 47 -35 47q-30 0 -49 -37z" />
    <glyph glyph-name="uni1EE8" unicode="&#x1ee8;" horiz-adv-x="1331" 
d="M1315 1776l-338 -295h-227l270 295h295zM1657 1520q0 -101 -77 -194.5t-198 -139.5l-151 -684q-54 -252 -206.5 -389.5t-397.5 -137.5q-250 0 -393.5 123t-143.5 326q0 34 8 84l191 858h391l-193 -870q-6 -36 -6 -47q2 -56 44 -96t116 -40q159 0 199 183l192 870h391
l-10 -47q62 43 82 82q-4 -2 -16 -2q-44 0 -74.5 28.5t-30.5 81.5q0 59 46.5 102.5t105.5 43.5q54 0 92.5 -36t38.5 -99z" />
    <glyph glyph-name="uni1EE9" unicode="&#x1ee9;" horiz-adv-x="1093" 
d="M1124 1434l-338 -295h-227l270 295h295zM1270 1163q0 -77 -48 -152.5t-130 -129.5l-195 -881h-346l27 115q-130 -140 -285 -140q-123 0 -194.5 62t-71.5 160q0 3 8 67l160 725h346l-131 -596q-7 -25 -7 -39q0 -35 25.5 -54t65.5 -19q69 0 137 86l139 622h287q33 27 49 58
q-6 -3 -16 -3q-44 0 -74.5 29t-30.5 82q0 59 47 102t105 43q55 0 94 -36.5t39 -100.5z" />
    </font>
</defs>
</svg>
